<?xml version="1.0" standalone="no"?>
<!DOCTYPE svg PUBLIC "-//W3C//DTD SVG 1.1//EN" "http://www.w3.org/Graphics/SVG/1.1/DTD/svg11.dtd" >
<svg xmlns="http://www.w3.org/2000/svg" xmlns:xlink="http://www.w3.org/1999/xlink" version="1.1">
<metadata></metadata>
<defs>
<font id="mocheregular" horiz-adv-x="500" >
<font-face units-per-em="1000" ascent="800" descent="-200" />
<missing-glyph horiz-adv-x="350" />
<glyph unicode="&#xfb01;" horiz-adv-x="617" d="M116 0l11 249l-8 175h-86l2 35l-2 39h89l-1 27q-1 24 1 42.5t9.5 41t24.5 39t43 31t69 22t99 7.5q88 0 176 -17v-95q-137 37 -223 37q-72 0 -96 -29t-27 -85l-1 -21h176l-2 -37l2 -37h-173l-8 -175l11 -249l-43 2zM456 0l11 249l-11 249l43 -2l43 2l-11 -249l11 -249 l-43 2z" />
<glyph unicode="&#xfb02;" horiz-adv-x="632" d="M116 0l11 249l-8 175h-86l2 35l-2 39h89l-1 27q-7 183 216 183q67 0 129 -9l43 -2l43 2l-11 -450l11 -249l-43 2l-43 -2l11 249l-9 372q-60 12 -131 12q-44 0 -73 -8.5t-42.5 -26t-18.5 -35t-6 -44.5l-1 -21h176l-2 -37l2 -37h-173l-8 -175l11 -249l-43 2z" />
<glyph horiz-adv-x="0" />
<glyph horiz-adv-x="0" />
<glyph horiz-adv-x="333" />
<glyph unicode="&#xd;" horiz-adv-x="0" />
<glyph unicode=" "  horiz-adv-x="350" />
<glyph unicode="&#x09;" horiz-adv-x="350" />
<glyph unicode="&#xa0;" horiz-adv-x="350" />
<glyph unicode="!" horiz-adv-x="518" d="M219 176l-2 249l-14 250l56 -2l57 2l-15 -250l-2 -249l-40 2zM314 110v-110h-110v110l57 -3z" />
<glyph unicode="&#x22;" horiz-adv-x="495" d="M78 423l89 227h110l-134 -227h-65zM218 423l89 227h110l-134 -227h-65z" />
<glyph unicode="#" horiz-adv-x="578" d="M345 0l24 184h-173l-23 -184h-51l23 184h-92l2 41l-2 45h104l13 106h-92l2 41l-2 45h103l24 185h51l-23 -185h172l24 185h51l-24 -185h92l-2 -45l2 -41h-104l-13 -106h92l-2 -45l2 -41h-103l-24 -184h-51zM208 270h172l13 106h-172z" />
<glyph unicode="$" horiz-adv-x="737" d="M49 92l41 92q109 -84 244 -106l5 184l-1 44q-47 5 -80 11t-70.5 18.5t-60.5 30t-38.5 46t-15.5 65.5q0 89 69 135.5t188 52.5l-3 127l43 -2l43 2l-3 -127q125 -6 232 -52l-41 -85q-92 41 -193 51l-5 -207q52 -5 87.5 -10t78 -18t68 -31.5t43 -50.5t17.5 -74 q0 -96 -80 -150t-208 -54l4 -135l-43 2l-43 -2l4 139q-148 16 -282 104zM135 474q0 -26 15 -43.5t46 -28t61.5 -15.5t78.5 -9l-4 205q-89 -2 -143 -30.5t-54 -78.5zM401 262l6 -191h7q58 0 106.5 12t82 40t33.5 68q0 24 -13.5 42.5t-32 29t-54 18.5t-62 11t-72.5 8z" />
<glyph unicode="%" horiz-adv-x="795" d="M193 679q70 0 116.5 -46.5t46.5 -113.5t-46.5 -113.5t-116.5 -46.5t-116.5 46.5t-46.5 113.5t46.5 113.5t116.5 46.5zM555 679h51l-361 -679h-51zM193 440q48 0 76.5 20t28.5 59t-28.5 59t-76.5 20t-76 -20t-28 -59t28 -59t76 -20zM602 320q70 0 116.5 -46.5t46.5 -113.5 t-46.5 -113.5t-116.5 -46.5t-116.5 46.5t-46.5 113.5t46.5 113.5t116.5 46.5zM602 81q48 0 76 20t28 59t-28 59t-76 20t-76.5 -20t-28.5 -59t28.5 -59t76.5 -20z" />
<glyph unicode="&#x26;" horiz-adv-x="682" d="M235 -17q-88 1 -137.5 58t-49.5 134q0 66 34 114t116 86l4 2l-28 30q-54 57 -54 119t47.5 101t123.5 39q77 0 123 -38t46 -101q0 -80 -121 -148l-41 -24l164 -175l112 127l58 -51l-119 -131l116 -125h-79l-77 83q-48 -45 -110.5 -72t-127.5 -28zM237 421l18 -19l48 22 q36 17 63 41t28 47q1 35 -27 52t-76 17q-102 0 -102 -69q0 -40 48 -91zM114 196q0 -54 40.5 -85t105.5 -32q90 0 161 60l-173 188l-10 -6q-77 -44 -100.5 -66t-23.5 -59z" />
<glyph unicode="'" horiz-adv-x="370" d="M96 459l60 196h110l-105 -196h-65z" />
<glyph unicode="(" horiz-adv-x="285" d="M188 664l75 -19q-78 -95 -117.5 -174.5t-39.5 -165.5q0 -159 159 -358l-76 -18q-140 160 -140 369q0 205 139 366z" />
<glyph unicode=")" horiz-adv-x="285" d="M99 664q139 -161 139 -366q0 -209 -140 -369l-76 18q159 199 159 358q0 86 -39.5 165.5t-117.5 174.5z" />
<glyph unicode="*" horiz-adv-x="428" d="M298 361l-28 -26l-56 117l-56 -117l-30 27l-32 22l83 96l-121 20l10 40l10 43l110 -53l-13 121l38 -2l39 2l-12 -121l110 53l8 -43l12 -40l-122 -20l83 -96z" />
<glyph unicode="+" horiz-adv-x="513" d="M228 0v195h-188l2 33l-2 33h188v194l28 -1l29 1v-194h187l-2 -33l2 -33h-187v-195l-29 1z" />
<glyph unicode="," horiz-adv-x="370" d="M94 -104l64 214h118l-100 -214h-82z" />
<glyph unicode="-" horiz-adv-x="444" d="M54 223l2 41l-2 45h336l-2 -45l2 -41h-336z" />
<glyph unicode="." horiz-adv-x="370" d="M240 0h-110v110l57 -3l53 3v-110z" />
<glyph unicode="/" horiz-adv-x="237" d="M-9 -16l190 681h59l-190 -681h-59z" />
<glyph unicode="0" horiz-adv-x="616" d="M308 -16q-55 0 -103.5 19.5t-89 58.5t-64.5 106.5t-24 154.5q0 82 20.5 145.5t51 99.5t70 59t73.5 31t66 8t65.5 -8t73.5 -31t70.5 -59t51 -99.5t20.5 -145.5q0 -87 -24 -154.5t-64.5 -106.5t-89.5 -58.5t-103 -19.5zM308 67q93 0 157 66.5t64 193.5q0 111 -57.5 183 t-163.5 72q-107 0 -164.5 -72t-57.5 -183q0 -127 64.5 -193.5t157.5 -66.5z" />
<glyph unicode="1" horiz-adv-x="364" d="M188 0l11 251l-7 273h-132l2 41l-2 39q100 -2 149 46l32 -1l33 1l-11 -399l11 -251l-44 2z" />
<glyph unicode="2" horiz-adv-x="615" d="M571 84l-2 -43l2 -41h-534v77q17 48 66 89.5t166 102.5q31 17 77 38t69 33t48 30t35.5 39t10.5 49q0 62 -49 93t-134 31q-76 0 -136.5 -32t-93.5 -86l-71 48q31 61 107 107.5t180 46.5q129 0 194 -52t65 -140q0 -22 -4 -41.5t-9 -35t-17 -31t-19.5 -25.5t-26.5 -23.5 t-27.5 -20t-32.5 -18.5l-32 -16t-36 -16.5t-35 -15.5q-143 -65 -220 -147h459z" />
<glyph unicode="3" horiz-adv-x="617" d="M4 88l65 68q50 -41 117 -65t134 -24q33 0 63 5.5t59.5 18t47.5 38t18 59.5q0 112 -215 112h-115l2 39l-2 42h88q222 0 222 98q0 36 -29.5 60.5t-70 34t-88.5 9.5q-123 0 -208 -73l-63 62q94 94 262 94q47 0 89.5 -9t81 -28t61.5 -54.5t23 -84.5q0 -34 -9.5 -60t-28.5 -43 t-31.5 -24.5t-33.5 -17.5q26 -9 44.5 -19.5t38.5 -28.5t30.5 -46t10.5 -65q0 -73 -40.5 -120t-98.5 -64.5t-133 -17.5q-95 0 -171 28.5t-120 75.5z" />
<glyph unicode="4" horiz-adv-x="617" d="M14 146l1 39l-1 42l377 423l57 -1l52 1l-11 -400l1 -23h101l-2 -42l2 -39h-98l7 -162l-44 2l-42 -2l7 162h-407zM425 251l-12 320l-320 -344h331z" />
<glyph unicode="5" horiz-adv-x="617" d="M23 85l64 70q85 -88 228 -88q96 0 151 38t55 109q0 52 -34 85.5t-78 45.5t-95 12q-136 0 -197 -73l-56 17l25 349h446l-2 -42l1 -39h-387l-23 -191q81 63 202 63q122 0 190.5 -63.5t68.5 -163.5q0 -99 -67.5 -164.5t-206.5 -65.5q-182 0 -285 101z" />
<glyph unicode="6" horiz-adv-x="617" d="M584 201q0 -100 -74.5 -157t-174.5 -57q-136 0 -222.5 94.5t-86.5 233.5q0 169 91.5 260t232.5 91q133 0 210 -66l-49 -69q-84 51 -169 51q-104 0 -179.5 -69.5t-75.5 -193.5q40 54 105 86t140 32q114 0 183 -64.5t69 -171.5zM315 357q-70 0 -127.5 -28t-93.5 -77 q21 -92 93 -138.5t158 -46.5q69 0 123.5 38.5t54.5 105.5q0 71 -61.5 108.5t-146.5 37.5z" />
<glyph unicode="7" horiz-adv-x="563" d="M25 569l1 39l-1 42h503v-81l-362 -585h-80l368 585h-429z" />
<glyph unicode="8" horiz-adv-x="616" d="M587 167q0 -91 -74 -137t-205 -46q-122 0 -200.5 46t-78.5 137q0 66 41 113t93 66v2q-111 46 -111 144q0 83 64.5 128.5t189.5 45.5t191.5 -48.5t64.5 -128.5q3 -94 -109 -141v-2q53 -19 93.5 -64.5t40.5 -114.5zM308 586q-75 0 -136.5 -27t-61.5 -75q0 -35 36.5 -61.5 t76.5 -37.5t75 -13h21q25 2 54.5 9.5t60.5 20.5t51.5 35t20.5 48q0 49 -62.5 75t-135.5 26zM308 68q35 0 71 6t71 18.5t57 36.5t22 56q0 22 -10 40.5t-31.5 31t-37.5 21t-48 15.5t-42 9t-38 6h-28q-24 -4 -37.5 -6.5t-43 -9.5t-47.5 -15.5t-38.5 -21t-30.5 -30t-10 -39.5 q0 -31 23 -55t58.5 -37t71 -19.5t68.5 -6.5z" />
<glyph unicode="9" horiz-adv-x="617" d="M591 338q0 -169 -91.5 -260t-232.5 -91q-133 0 -210 66l49 69q84 -51 169 -51q104 0 179.5 69.5t75.5 193.5q-40 -54 -105 -86t-140 -32q-114 0 -183 64.5t-69 171.5q0 100 74.5 157t174.5 57q136 0 222.5 -94.5t86.5 -233.5zM302 296q70 0 127.5 28t93.5 77 q-21 92 -93 138.5t-158 46.5q-69 0 -123.5 -38.5t-54.5 -105.5q0 -71 61.5 -108.5t146.5 -37.5z" />
<glyph unicode=":" horiz-adv-x="370" d="M240 392h-110v110l57 -3l53 3v-110zM240 0h-110v110l57 -3l53 3v-110z" />
<glyph unicode=";" horiz-adv-x="370" d="M268 392h-110v110l57 -3l53 3v-110zM117 -104l40 214h110l-85 -214h-65z" />
<glyph unicode="&#x3c;" horiz-adv-x="513" d="M40 207l2 24l-2 25l432 217l-2 -43l2 -36l-363 -162l363 -164l-2 -36l2 -42z" />
<glyph unicode="=" horiz-adv-x="513" d="M40 288l2 30l-2 30h432l-2 -30l2 -30h-432zM40 107l2 30l-2 30h432l-2 -30l2 -30h-432z" />
<glyph unicode="&#x3e;" horiz-adv-x="513" d="M472 207l-432 -217l2 42l-2 36l363 164l-363 162l2 36l-2 43l432 -217l-2 -25z" />
<glyph unicode="?" horiz-adv-x="593" d="M221 169v80q0 44 47 81q19 15 44 35t39 30.5t31.5 24.5t26.5 22t20 18.5t16.5 17t10.5 14t6.5 14.5t1.5 14q0 41 -58 61t-147 20q-79 0 -166 -25l3 48l-3 43q127 17 188 17q48 0 89.5 -8t79.5 -25.5t60 -51.5t22 -82q0 -45 -40 -92t-168 -138q-31 -22 -31 -51v-67h-72z M312 110v-110h-110v110l57 -3z" />
<glyph unicode="@" horiz-adv-x="732" d="M496 450l20 60l48 -11l-82 -238q-12 -34 -12 -50q0 -24 28 -24q19 0 42 10.5t47 31.5t39.5 59.5t15.5 87.5q0 109 -75.5 164t-183.5 55q-125 0 -210 -76t-85 -194q0 -125 88 -199t241 -74q122 0 208 84l28 -22q-101 -130 -270 -130q-145 0 -244 100t-99 241 q0 143 97.5 242t245.5 99q133 0 221 -80t88 -202q0 -104 -67.5 -185.5t-137.5 -81.5q-30 0 -48 17.5t-17 49.5h-2q-54 -63 -125 -63q-57 0 -88 39.5t-31 101.5q0 96 61.5 180t146.5 84q83 0 110 -76h2zM223 269q0 -36 22.5 -54t55.5 -18q65 0 116 62t51 122q0 40 -25 54.5 t-54 14.5q-68 0 -117 -61t-49 -120z" />
<glyph unicode="A" horiz-adv-x="731" d="M646 0l-75 167h-403l-73 -167h-96l165 333l148 316l51 -2l49 2l159 -337l157 -312h-82zM363 577l-136 -276l-22 -50h328l-18 39z" />
<glyph unicode="B" horiz-adv-x="788" d="M99 649l86 -2l275 2q26 0 45.5 -1t53 -5t57.5 -15t48 -28.5t37 -48.5t13 -71q0 -23 -7.5 -42.5t-15 -30.5t-25.5 -23.5t-25 -16l-27 -13.5q20 -7 38.5 -17t42.5 -29t38.5 -52t14.5 -74q0 -42 -14.5 -74t-42 -51t-57.5 -31.5t-71.5 -17.5t-73 -6.5t-72.5 -1.5l-232 2 l-86 -2l11 250zM412 565h-229l-5 -170h260q217 0 217 85q0 20 -8.5 35t-27.5 24t-37.5 14.5t-51.5 8t-55.5 3t-62.5 0.5zM174 250l7 -165h287q218 0 218 100q0 125 -209 125h-301z" />
<glyph unicode="C" horiz-adv-x="750" d="M678 132l36 -78q-124 -70 -298 -70q-184 0 -280 96.5t-96 246.5q0 162 104.5 250.5t285.5 88.5q158 0 282 -62l-43 -75q-110 56 -247 56q-155 0 -238 -70t-83 -199q0 -111 80.5 -178.5t225.5 -67.5q147 0 271 62z" />
<glyph unicode="D" horiz-adv-x="816" d="M99 649l85 -2l240 2q158 2 255 -80.5t97 -235.5q0 -96 -33.5 -164.5t-91 -104t-119.5 -50.5t-133 -14l-215 2l-85 -2l11 250zM174 250l7 -164h230q21 0 39.5 1t51 6.5t59 14.5t56.5 28t50 44t33.5 65t13.5 90q0 64 -24.5 110t-67.5 71t-92 36.5t-106 11.5h-241z" />
<glyph unicode="E" horiz-adv-x="713" d="M99 649l86 -2l491 2l-2 -42l2 -42h-493l-5 -185h424l-2 -41l2 -40h-427l-1 -49l7 -165h505l-2 -42l2 -43l-501 2l-86 -2l11 250z" />
<glyph unicode="F" horiz-adv-x="699" d="M174 250l11 -250l-43 2l-43 -2l11 250l-11 399l86 -2l491 2l-2 -42l2 -42h-493l-6 -212h434l-2 -43l2 -43h-437v-17z" />
<glyph unicode="G" horiz-adv-x="762" d="M373 324l337 -3l-2 -208l2 -53q-116 -78 -285 -78q-183 0 -279 97.5t-96 247.5q0 161 101.5 250t267.5 89q130 0 237 -51l-39 -73q-93 40 -190 40q-145 0 -230.5 -70t-85.5 -196q0 -116 85.5 -183t232.5 -67q120 0 209 46l4 127l-269 -2l2 42z" />
<glyph unicode="H" horiz-adv-x="879" d="M100 0l11 250l-11 399l43 -2l43 2l-7 -266h521l-7 266l43 -2l43 2l-11 -399l11 -250l-43 2l-43 -2l11 250l-1 46h-527l-1 -46l11 -250l-43 2z" />
<glyph unicode="I" horiz-adv-x="286" d="M100 0l11 250l-11 399l43 -2l43 2l-11 -399l11 -250l-43 2z" />
<glyph unicode="J" horiz-adv-x="523" d="M413 250q0 -71 -18.5 -124.5t-50 -83t-67.5 -44t-75 -14.5q-59 0 -111 30t-80 81l69 47q23 -36 62 -57t81 -21q65 0 95.5 50t30.5 136l-11 399l43 -2l43 2z" />
<glyph unicode="K" horiz-adv-x="750" d="M99 0l11 250l-11 399l43 -2l43 2l-10 -351l145 104l309 249l27 -40l32 -37l-275 -201l123 -157l184 -216h-121l-126 179l-123 148l-174 -133l9 -194l-43 2z" />
<glyph unicode="L" horiz-adv-x="697" d="M670 45l2 -45l-487 2l-86 -2l11 250l-11 399l43 -2l43 2l-11 -399l7 -166l491 5z" />
<glyph unicode="M" horiz-adv-x="1022" d="M90 0l32 250l16 400h92v-3l1 3l279 -556h4l264 556h108l16 -400l32 -250l-47 2l-55 -2l-7 250l-23 294l-253 -544l-38 2l-35 -2l-256 527l-21 -277l-7 -250l-55 2z" />
<glyph unicode="N" horiz-adv-x="861" d="M99 0l11 250l-15 400h91l486 -550l3 150l-11 400l51 -2l45 2l-11 -400l15 -250h-89l-484 554l-7 -304l11 -250l-53 2z" />
<glyph unicode="O" horiz-adv-x="828" d="M40 324q0 157 104.5 249.5t270.5 92.5t269.5 -92.5t103.5 -249.5q0 -84 -32 -151.5t-85.5 -108t-119 -61.5t-136.5 -21q-57 0 -110.5 13t-101.5 40.5t-84 67t-57.5 96.5t-21.5 125zM101 337q0 -71 26.5 -124.5t71.5 -85t99.5 -46.5t116.5 -15q60 0 114 15.5t99.5 46 t72.5 84.5t27 125q0 107 -87.5 176t-225.5 69t-226 -69t-88 -176z" />
<glyph unicode="P" horiz-adv-x="738" d="M99 649l84 -2l282 2q253 2 253 -185q0 -189 -253 -189h-290l-1 -25l11 -250l-43 2l-43 -2l11 250zM443 565h-260l-6 -209h266q114 0 164.5 22t50.5 85t-49 82.5t-166 19.5z" />
<glyph unicode="Q" horiz-adv-x="828" d="M40 324q0 157 104.5 249.5t270.5 92.5t269.5 -92.5t103.5 -249.5q0 -178 -136 -273l191 -32l-13 -51l-9 -47l-263 84q-69 -23 -143 -23q-57 0 -110.5 13t-101.5 40.5t-84 67t-57.5 96.5t-21.5 125zM101 337q0 -71 26.5 -124.5t71.5 -85t99.5 -46.5t116.5 -15 q60 0 114 15.5t99.5 46t72.5 84.5t27 125q0 107 -87.5 176t-225.5 69t-226 -69t-88 -176z" />
<glyph unicode="R" horiz-adv-x="768" d="M607 -3l-118 222l-35 56h-279l10 -275l-43 2l-43 -2l11 250l-11 399l84 -2l282 2q253 2 253 -185q0 -162 -188 -185l15 -27l161 -252zM443 565h-260l-6 -209h266q114 0 164.5 22t50.5 85t-49 82.5t-166 19.5z" />
<glyph unicode="S" horiz-adv-x="737" d="M49 92l41 92q68 -52 153.5 -82.5t170.5 -30.5q58 0 106.5 12t82 40t33.5 68q0 38 -31 61t-80.5 32t-109.5 14t-120.5 13.5t-110 24t-80.5 51t-31 90.5q0 97 80.5 143t217.5 46q152 0 291 -60l-41 -85q-141 62 -281 62q-92 0 -148.5 -29t-56.5 -80q0 -36 31 -56.5 t80.5 -28.5t109.5 -12.5t120 -13t109.5 -25t80.5 -54.5t31 -96q0 -96 -80 -149.5t-209 -54.5q-194 -1 -359 108z" />
<glyph unicode="T" horiz-adv-x="713" d="M314 0l11 250l-9 315h-296v84h673v-84h-295l-9 -315l11 -250l-43 2z" />
<glyph unicode="U" horiz-adv-x="875" d="M769 250q0 -63 -20.5 -112t-53 -78t-77.5 -47t-88.5 -24.5t-92.5 -6.5t-92.5 6.5t-88.5 24.5t-77 47t-52.5 78t-20.5 112l-11 399l43 -2l43 2l-11 -399q0 -91 69.5 -137t197.5 -46t198 46t70 137l-11 399l43 -2l43 2z" />
<glyph unicode="V" horiz-adv-x="746" d="M-10 650h92l165 -324l135 -224l122 235l153 313h99l-188 -351l-148 -299l-43 3l-45 -3l-145 293z" />
<glyph unicode="W" horiz-adv-x="978" d="M227 0l-91 281l-131 369h88l97 -319l77 -221l75 213l98 326l47 -2l49 2l95 -321l77 -211l72 205l98 328h94l-126 -371l-93 -279l-39 3l-44 -3l-89 281l-88 256h-4l-81 -250l-88 -287l-46 3z" />
<glyph unicode="X" horiz-adv-x="711" d="M-10 0l324 347l-305 303h112l235 -257l243 257h118l-310 -311l314 -338h-119l-239 286l-265 -287h-108z" />
<glyph unicode="Y" horiz-adv-x="657" d="M283 0l6 250v2l-107 159l-189 239h112l130 -194l91 -119l91 121l127 192h123l-197 -242l-109 -156v-2l8 -250l-43 2z" />
<glyph unicode="Z" horiz-adv-x="695" d="M22 0v50l300 289l229 229l-233 3l-268 -3l2 41l-2 40h611v-52l-284 -281l-232 -237l244 -2l284 4l-2 -41l2 -40h-651z" />
<glyph unicode="[" horiz-adv-x="284" d="M58 -97l11 346l-11 437h215l-2 -42l2 -39h-131v2l-9 -358l8 -265h132l-2 -42l2 -39h-215z" />
<glyph unicode="\" horiz-adv-x="238" d="M187 -16l-190 682h60l190 -682h-60z" />
<glyph unicode="]" horiz-adv-x="283" d="M227 -97h-215l2 39l-2 42h132l8 265l-9 358v-2h-131l2 39l-2 42h215l-11 -437z" />
<glyph unicode="^" horiz-adv-x="532" d="M421 247l-158 364l-151 -364h-72l161 403l62 -2l69 2l160 -403h-71z" />
<glyph unicode="_" horiz-adv-x="427" d="M0 -130l2 39l-2 42h427l-2 -42l2 -39h-427z" />
<glyph unicode="`" horiz-adv-x="296" d="M156 582l-138 140h100l128 -140h-90z" />
<glyph unicode="a" horiz-adv-x="628" d="M486 0l3 118q-136 -134 -275 -134q-29 0 -56.5 5.5t-58.5 19.5t-50 44.5t-19 74.5q0 46 23 78.5t60 51t100 29.5t125.5 14t153.5 3v34q0 34 -30 56.5t-66.5 29.5t-79.5 7q-116 0 -215 -62l-36 75q114 68 259 69q234 -2 234 -180v-84l10 -249l-43 2zM91 140q0 -68 118 -68 q163 0 282 115l1 41q-120 0 -192 -3.5t-121.5 -13.5t-68.5 -26.5t-19 -44.5z" />
<glyph unicode="b" horiz-adv-x="708" d="M80 0l11 249l-11 450l43 -2l43 2l-7 -287q97 100 232 100q70 0 125 -25t87 -64.5t48.5 -84.5t16.5 -90t-16.5 -90t-48 -84.5t-85.5 -64.5t-121 -25q-136 0 -235 97l4 -81l-43 2zM600 248q0 76 -63 127.5t-154 51.5q-113 0 -226 -85l-2 -93l4 -97q102 -80 223 -80 q92 0 155 50t63 126z" />
<glyph unicode="c" horiz-adv-x="586" d="M546 455l-49 -78q-70 50 -169 50q-90 0 -154.5 -45.5t-64.5 -135.5q0 -79 54 -126.5t155 -47.5q105 0 179 53l49 -78q-88 -63 -223 -63q-130 0 -205.5 63t-75.5 192q0 131 83 202t212 71q116 0 209 -57z" />
<glyph unicode="d" horiz-adv-x="707" d="M628 0l-43 2l-43 -2l4 81q-99 -97 -235 -97q-67 0 -121 25t-85.5 64.5t-48 84.5t-16.5 90t16.5 90t48.5 84.5t87 64.5t125 25q135 0 232 -100l-7 287l43 -2l43 2l-11 -450zM108 248q0 -76 63 -126t155 -50q121 0 223 80l4 97l-2 93q-113 85 -226 85q-91 0 -154 -51.5 t-63 -127.5z" />
<glyph unicode="e" horiz-adv-x="625" d="M523 143l54 -78q-104 -81 -255 -81q-122 0 -202 67t-80 192q0 119 73.5 194t203.5 75q123 0 195.5 -55.5t72.5 -169.5q0 -30 -6 -66l-256 2l-216 -4q0 -62 59.5 -104.5t141.5 -42.5q64 0 121 21.5t94 49.5zM110 293l213 -3l198 4q0 61 -56.5 97t-145.5 36q-91 0 -150 -36 t-59 -98z" />
<glyph unicode="f" horiz-adv-x="436" d="M116 0l11 249l-8 175h-86l2 35l-2 39h89l-1 27q-1 35 6 64t26 57.5t61.5 45t104.5 16.5q54 0 106 -13l-19 -75q-48 13 -88 13q-65 0 -91.5 -30.5t-29.5 -83.5l-1 -21h206l-2 -37l2 -37h-203l-8 -175l11 -249l-43 2z" />
<glyph unicode="g" horiz-adv-x="621" d="M292 175q-67 0 -112 22q-51 -20 -51 -56q0 -28 39.5 -39.5t124.5 -11.5q154 0 221.5 -29.5t67.5 -118.5q0 -173 -291 -173q-48 0 -91 8t-83 25t-63.5 50.5t-23.5 78.5q0 77 78 119q-45 33 -45 84q0 60 60 102q-39 42 -39 106q0 73 57 120t151 47q72 0 126 -30l173 26 l-2 -49l2 -48h-106q14 -31 14 -66q0 -78 -57 -122.5t-150 -44.5zM292 258q68 0 109 24t41 61q0 34 -37.5 59t-112.5 25q-76 0 -113.5 -24.5t-37.5 -59.5q0 -37 41 -61t110 -24zM293 4q-65 0 -111 12q-38 -9 -59.5 -32.5t-21.5 -49.5q0 -80 192 -80q97 0 163 22.5t66 66.5 q0 20 -17 32.5t-68.5 20.5t-143.5 8z" />
<glyph unicode="h" horiz-adv-x="668" d="M85 0l11 249l-11 450l43 -2l43 2l-6 -251q92 64 205 64q24 0 46 -2.5t53 -13.5t53 -29.5t38 -54t16 -84.5l-1 -79l8 -249l-39 2l-39 -2l9 249l-1 64q-9 109 -148 114q-117 0 -202 -65l-3 -113l11 -249l-43 2z" />
<glyph unicode="i" horiz-adv-x="239" d="M77 603v88l46 -2l42 2v-88h-88zM78 0l11 249l-11 249l43 -2l43 2l-11 -249l11 -249l-43 2z" />
<glyph unicode="j" horiz-adv-x="291" d="M110 691l46 -2l42 2v-88h-88v88zM59 -173q-27 0 -53 6l5 37l1 42q30 -7 47 -7q25 0 37 15t16 55l8 274l-9 249l43 -2l43 2l-9 -249l8 -293q1 -57 -35 -93t-102 -36z" />
<glyph unicode="k" horiz-adv-x="565" d="M85 0l11 249l-11 450l43 -2l43 2l-11 -447l138 102l185 147l25 -35l29 -34l-191 -139l-8 -6l78 -98l161 -189h-103l-120 146l-79 92l-111 -86l7 -152l-43 2z" />
<glyph unicode="l" horiz-adv-x="246" d="M80 0l11 249l-11 450l43 -2l43 2l-11 -450l11 -249l-43 2z" />
<glyph unicode="m" horiz-adv-x="1000" d="M81 0l11 249l-11 249l43 -2l43 2l-3 -65q84 79 195 79q117 0 157 -89q95 89 217 89q19 0 38 -2.5t46 -13.5t47 -29t34.5 -54t14.5 -85l-1 -79l7 -249l-38 2l-39 -2l8 249l-1 64q0 58 -41.5 85t-99.5 29q-104 0 -176 -65q2 -22 2 -34l-1 -79l7 -249l-37 2l-38 -2l8 249 l-1 64q0 58 -39 85t-95 29q-53 0 -100.5 -21t-76.5 -54l-5 -103l11 -249l-43 2z" />
<glyph unicode="n" horiz-adv-x="693" d="M85 0l11 249l-11 249l43 -2l43 2l-3 -66q44 36 108 58.5t130 22.5q190 0 190 -184l12 -329l-39 2l-39 -2l2 313q0 53 -46 83.5t-112 30.5q-61 0 -118 -25t-92 -61l-4 -92l11 -249l-43 2z" />
<glyph unicode="o" horiz-adv-x="653" d="M327 -16q-129 0 -208 70.5t-79 193.5q0 116 78.5 190t208.5 74q129 0 207.5 -74t78.5 -190q0 -123 -78.5 -193.5t-207.5 -70.5zM327 70q101 0 160 47.5t59 124.5q0 75 -55 130t-164 55q-110 0 -165 -55t-55 -130q0 -77 59.5 -124.5t160.5 -47.5z" />
<glyph unicode="p" horiz-adv-x="708" d="M80 498l43 -2l43 2l-4 -81q99 97 235 97q67 0 121 -25t85.5 -64.5t48 -84.5t16.5 -90t-16.5 -90t-48.5 -84.5t-87 -64.5t-125 -25q-135 0 -232 100l7 -287l-43 2l-43 -2l11 450zM600 250q0 76 -63.5 127t-154.5 49q-117 3 -223 -80l-4 -97l2 -93q113 -85 226 -85 q91 0 154 51.5t63 127.5z" />
<glyph unicode="q" horiz-adv-x="708" d="M628 498l-11 -249l11 -450l-43 2l-43 -2l7 287q-97 -100 -232 -100q-70 0 -125 25t-87 64.5t-48.5 84.5t-16.5 90t16.5 90t48 84.5t85.5 64.5t121 25q136 0 235 -97l-4 81l43 -2zM108 250q0 -76 63 -127.5t154 -51.5q113 0 226 85l2 93l-4 97q-106 83 -223 80 q-91 2 -154.5 -49t-63.5 -127z" />
<glyph unicode="r" horiz-adv-x="423" d="M85 0l11 249l-11 249l43 -2l43 2l-5 -108q37 51 92.5 86.5t125.5 35.5q20 0 39 -4v-85q-22 5 -45 5q-68 0 -123.5 -35t-91.5 -82l-3 -62l11 -249l-43 2z" />
<glyph unicode="s" horiz-adv-x="576" d="M39 72l41 84q54 -42 126 -67t143 -25q70 0 100.5 21t30.5 53q0 38 -43 55t-104 21.5t-122 13t-104 40.5t-43 91q0 53 35.5 88.5t87 50t115.5 15.5q121 -1 218 -50l-40 -74q-93 43 -196 43q-66 0 -109 -19.5t-43 -54.5q0 -27 30.5 -41.5t76.5 -17t100 -9.5t100 -17.5 t76.5 -43.5t30.5 -85q0 -80 -64.5 -120t-158.5 -40q-76 0 -153.5 25t-130.5 63z" />
<glyph unicode="t" horiz-adv-x="385" d="M179 133q3 -32 28.5 -51t64.5 -19q34 0 68 15l17 -79q-60 -15 -109 -15q-39 0 -66.5 11.5t-40.5 26.5t-20.5 38.5t-8.5 36.5t-1 31l1 121l-4 174h-86l3 37l-3 38h87l-11 175l48 -2l43 2l-7 -175h165l-2 -37l2 -38h-165l-4 -174z" />
<glyph unicode="u" horiz-adv-x="665" d="M85 498l39 -2l39 2l-9 -249l1 -64q0 -58 40.5 -85t95.5 -29q62 0 118.5 21t90.5 54l5 103l-11 249l43 -2l43 2l-11 -249l11 -249l-43 2l-43 -2l3 66q-98 -80 -227 -80q-21 0 -40 2.5t-45.5 13.5t-45.5 29.5t-33 54t-14 84.5l1 79z" />
<glyph unicode="v" horiz-adv-x="591" d="M328 0l-36 2l-34 -2l-138 271l-121 229h91l99 -208l103 -187l104 197l91 198h101l-122 -230z" />
<glyph unicode="w" horiz-adv-x="850" d="M376 270l-92 -270l-49 3l-47 -3l-90 271l-91 229h88l67 -204l68 -189l75 189l63 202l57 -2l49 2l66 -202l72 -189l73 188l61 205h94l-87 -230l-90 -270l-48 2l-52 -2l-86 271l-48 124h-4z" />
<glyph unicode="x" horiz-adv-x="542" d="M275 205l-179 -205h-106l241 256l-4 5l-228 239h97l172 -195l6 -6l6 6l170 195h94l-229 -248l237 -252h-100l-176 207z" />
<glyph unicode="y" horiz-adv-x="571" d="M109 -174q-45 0 -92 14l15 85q34 -10 63 -10q103 0 148 95l-93 190l-161 300h92l137 -276l63 -110l70 126l129 260h99l-160 -292l-134 -272q-55 -110 -176 -110z" />
<glyph unicode="z" horiz-adv-x="559" d="M516 499l-2 -49l-231 -219l-152 -150l206 -2l187 2l-2 -40l2 -41h-509v49l222 209l161 160l-188 2l-175 -2l1 40l-1 41h481z" />
<glyph unicode="{" horiz-adv-x="285" d="M244 -86h-64q-88 0 -88 91v150q0 63 -10 82t-41 19l2 40l-2 40q31 0 41 20t10 83v140q0 91 88 91h64l-2 -40l2 -39h-28q-29 0 -41.5 -9.5t-12.5 -38.5v-149q0 -84 -52 -97v-2q52 -13 52 -94v-160q0 -28 12.5 -37.5t41.5 -9.5h28l-2 -40z" />
<glyph unicode="|" horiz-adv-x="189" d="M69 -225l2 470l-2 421l25 -1l25 1l-2 -420l2 -471l-25 1z" />
<glyph unicode="}" horiz-adv-x="285" d="M42 -85l2 40l-2 40h28q29 0 41.5 9.5t12.5 37.5v160q0 81 52 94v2q-52 13 -52 97v149q0 29 -12.5 38.5t-41.5 9.5h-28l2 39l-2 40h64q88 0 88 -91v-140q0 -63 10 -83t41 -20l-2 -40l2 -40q-31 0 -41 -19t-10 -82v-150q0 -91 -88 -91h-64z" />
<glyph unicode="~" horiz-adv-x="482" d="M367 298h75q0 -50 -32.5 -86.5t-86.5 -36.5q-40 0 -88.5 31.5t-71.5 31.5t-38 -19.5t-15 -50.5h-70q0 49 27 85t83 36q42 0 95 -31.5t72 -31.5q21 0 35.5 21t14.5 51z" />
<glyph unicode="&#xa1;" horiz-adv-x="283" d="M87 471l53 -3l57 3v-110h-110v110zM182 295l2 -249l14 -250l-56 2l-57 -2l15 250l2 249l40 -2z" />
<glyph unicode="&#xa2;" horiz-adv-x="586" d="M149 -110l40 115q-147 55 -147 234q0 131 83 202t212 71q19 0 29 -1l32 93h57l-35 -100q70 -14 126 -49l-49 -78q-49 34 -105 45l-121 -347q21 -3 47 -3q105 0 179 53l49 -78q-88 -63 -223 -63q-46 0 -82 7l-35 -101h-57zM109 246q0 -117 109 -158l118 339h-8 q-89 2 -154 -44.5t-65 -136.5z" />
<glyph unicode="&#xa3;" horiz-adv-x="653" d="M40 68q111 36 111 212h-110l2 37l-2 41h106q-9 56 -9 88q0 104 65.5 164t167.5 57q173 -5 226 -171l-39 -12l-39 -16q-13 48 -58 79t-113 31q-67 0 -110 -33.5t-43 -104.5q0 -39 11 -82h162l-2 -38l2 -40h-158q3 -81 -27 -150q113 -60 204 -60q52 0 88 26.5t47 73.5 l41 -10l50 -7q-12 -77 -72.5 -123t-150.5 -46q-101 0 -225 58q-39 -44 -125 -58v84z" />
<glyph unicode="&#xa4;" d="M78 195q-46 59 -46 137q0 79 46 138l-46 49l17 16l15 18l47 -49q59 49 142 49q84 0 142 -49l47 49l14 -17l18 -17l-45 -49q45 -58 45 -138q0 -79 -45 -137l45 -50l-16 -15l-16 -18l-47 49q-58 -49 -142 -49q-83 0 -142 49l-47 -49l-14 16l-18 17zM253 185q86 0 133 39 t47 108q0 70 -47 109t-133 39q-85 0 -132.5 -39t-47.5 -109q0 -69 47.5 -108t132.5 -39z" />
<glyph unicode="&#xa5;" horiz-adv-x="654" d="M103 129l2 37l-2 38h182l1 46h-183l2 38l-2 37h126l-67 86l-212 239h112l153 -194l108 -119l112 121l146 192h123l-216 -242l-69 -83h121l-2 -36l2 -39h-182l1 -46h181l-2 -39l2 -36h-178l4 -129l-43 2l-43 -2l3 129h-180z" />
<glyph unicode="&#xa6;" horiz-adv-x="189" d="M117 345h-46l-2 321l25 -1l25 1zM69 -225l2 374h46l2 -374l-25 1z" />
<glyph unicode="&#xa7;" d="M61 -42l31 76q35 -29 58.5 -46.5t58 -32.5t65.5 -15q48 0 84.5 21t35.5 53q-1 26 -33.5 48.5t-79 42t-92.5 43t-78 63t-32 90.5q0 74 58 111q-58 49 -58 117q0 66 44.5 101t118.5 35q69 0 157 -44l-31 -70q-92 46 -149 46q-40 0 -67 -21t-27 -49q0 -30 32.5 -54.5 t78.5 -44t92.5 -42t79 -60t32.5 -86.5q0 -73 -62 -114q62 -48 62 -114q0 -62 -48.5 -103.5t-121.5 -41.5q-41 0 -82 15.5t-64.5 31t-62.5 44.5zM125 299q0 -17 9.5 -31.5t30.5 -28t38.5 -22.5t50.5 -24t50 -23q39 6 65 25.5t25 46.5q-1 20 -20 38t-41 28.5t-64.5 29.5 t-64.5 30q-35 -4 -57 -23.5t-22 -45.5z" />
<glyph unicode="&#xa8;" horiz-adv-x="296" d="M290 630h-88v88l46 -2l42 2v-88zM6 630v88l46 -2l42 2v-88h-88z" />
<glyph unicode="&#xa9;" horiz-adv-x="828" d="M40 323q0 157 104.5 249.5t270.5 92.5t269.5 -92.5t103.5 -249.5q0 -84 -32 -151.5t-85.5 -108t-119 -61.5t-136.5 -21q-57 0 -110.5 13t-101.5 40.5t-84 67t-57.5 96.5t-21.5 125zM81 336q0 -71 30 -129.5t78 -95t107 -56.5t119 -20q59 0 117 20t107 56.5t79 95 t30 129.5q0 109 -98.5 192t-234.5 83q-137 0 -235.5 -83t-98.5 -192zM589 194l24 -53q-83 -47 -201 -47q-124 0 -189 65t-65 167q0 109 70.5 169t192.5 60q107 0 191 -42l-29 -51q-73 38 -167 38q-105 0 -161 -47.5t-56 -134.5q0 -75 54.5 -120.5t152.5 -45.5q97 0 183 42z " />
<glyph unicode="&#xaa;" horiz-adv-x="360" d="M279 413l2 61q-77 -75 -149 -75q-41 0 -71.5 19t-30.5 66q0 32 17.5 53t53 32t78 15t104.5 4v14q0 41 -89 41q-70 0 -125 -34l-20 52q64 38 145 38q135 0 135 -100v-47l6 -139l-29 1zM74 488q0 -30 56 -30q86 0 152 64v13q-123 0 -165.5 -10t-42.5 -37z" />
<glyph unicode="&#xab;" horiz-adv-x="429" d="M149 56l-99 193l99 195l37 -1l42 1l-117 -195l117 -193l-43 1zM310 56l-99 193l99 195l37 -1l42 1l-117 -195l117 -193l-43 1z" />
<glyph unicode="&#xac;" horiz-adv-x="513" d="M40 193l2 30l-2 30h433v-242l-26 2l-25 -2v182h-382z" />
<glyph unicode="&#xad;" horiz-adv-x="0" />
<glyph unicode="&#xae;" horiz-adv-x="828" d="M40 323q0 157 104.5 249.5t270.5 92.5t269.5 -92.5t103.5 -249.5q0 -84 -32 -151.5t-85.5 -108t-119 -61.5t-136.5 -21q-57 0 -110.5 13t-101.5 40.5t-84 67t-57.5 96.5t-21.5 125zM81 336q0 -71 30 -129.5t78 -95t107 -56.5t119 -20q59 0 117 20t107 56.5t79 95 t30 129.5q0 109 -98.5 192t-234.5 83q-137 0 -235.5 -83t-98.5 -192zM553 126l-74 139l-22 35h-174l6 -172l-26 1l-27 -1l7 156l-7 249l52 -1l176 1q158 0 158 -116q0 -101 -117 -115l9 -17l100 -157zM450 480h-162l-4 -130h166q71 0 102.5 14t31.5 53t-30.5 51t-103.5 12z " />
<glyph unicode="&#xaf;" d="M-39 591v53h267v-53h-267z" />
<glyph unicode="&#xb0;" horiz-adv-x="392" d="M196 700q61 0 100.5 -39.5t39.5 -96.5t-39.5 -96.5t-100.5 -39.5q-60 0 -100 39.5t-40 96.5t40 96.5t100 39.5zM196 496q94 0 94 68t-94 68t-94 -68t94 -68z" />
<glyph unicode="&#xb1;" horiz-adv-x="512" d="M228 119v146h-188l2 33l-2 33h188v151l28 -1l29 1v-151h187l-2 -33l2 -33h-187v-146l-29 1zM40 27l2 30l-2 30h432l-2 -30l2 -30h-432z" />
<glyph unicode="&#xb2;" horiz-adv-x="366" d="M346 362l-1 -36l1 -24h-319v51q43 71 139 115q69 33 98.5 56t29.5 56q0 28 -22 43.5t-57 15.5q-109 0 -153 -70l-47 35q64 96 186 96q71 0 110.5 -33t39.5 -87q0 -16 -4 -30.5t-8.5 -24.5t-16.5 -21.5t-17.5 -17t-24 -15t-23.5 -12t-28 -12.5t-26 -12q-65 -30 -116 -73 h259z" />
<glyph unicode="&#xb3;" horiz-adv-x="377" d="M20 335l39 50q66 -53 150 -53q40 0 71 14t31 48q0 62 -118 62h-69l2 29l-2 30h53q123 0 123 53q0 27 -30.5 39.5t-72.5 12.5q-73 0 -124 -43l-38 47q56 56 157 56q62 0 107 -25t45 -80q0 -27 -12.5 -46.5t-22 -25.5t-26.5 -15q74 -26 74 -95q0 -63 -46.5 -92t-116.5 -29 q-114 0 -174 63z" />
<glyph unicode="&#xb4;" horiz-adv-x="296" d="M69 582l97 140h122l-142 -140h-77z" />
<glyph unicode="&#xb6;" d="M37 475q0 84 50 129.5t140 45.5h165l43 2l-11 -497l11 -249l-43 2l-43 -2l11 249l-10 436h-43l-10 -436l11 -249l-43 2l-43 -2l11 249l-3 151q-91 2 -142 49t-51 120z" />
<glyph unicode="&#xb7;" d="M174 273v126l65 -3l61 3v-126h-126z" />
<glyph unicode="&#xb8;" horiz-adv-x="296" d="M51 -73l32 42l26 40h72l-37 -45l-19 -27l2 -2q21 7 44 7q41 0 67.5 -20t26.5 -53q0 -42 -40.5 -68.5t-99.5 -26.5q-52 0 -108 21l10 24l6 26q46 -16 90 -16q40 0 68 13.5t28 29.5q0 12 -19.5 20t-52.5 8q-30 0 -63 -9l-16 20z" />
<glyph unicode="&#xb9;" horiz-adv-x="172" d="M94 282l7 155l-5 158h-76l1 30l-1 29q57 0 87 29l25 -1l25 1l-7 -246l7 -155l-32 1z" />
<glyph unicode="&#xba;" horiz-adv-x="414" d="M30 558q0 61 47.5 101.5t129.5 40.5t129.5 -40.5t47.5 -101.5q0 -73 -47 -113.5t-130 -40.5t-130 40.5t-47 113.5zM326 553q0 34 -28.5 55.5t-90.5 21.5t-90.5 -21.5t-28.5 -55.5q0 -42 29.5 -60t89.5 -18q61 0 90 18t29 60z" />
<glyph unicode="&#xbb;" horiz-adv-x="429" d="M280 56l-36 1l-43 -1l117 193l-117 195l42 -1l37 1l99 -195zM119 56l-36 1l-43 -1l117 193l-117 195l42 -1l37 1l99 -195z" />
<glyph unicode="&#xbc;" horiz-adv-x="813" d="M94 281l7 155l-5 158h-76l1 30l-1 29q57 0 87 29l25 -1l25 1l-7 -246l7 -155l-32 1zM139 0l383 680h48l-382 -680h-49zM444 108l1 28l-1 30l225 247l39 -1l36 1l-7 -238v-9h56l-1 -30l1 -28h-53l4 -92l-32 2l-30 -2l4 92h-242zM689 175l-7 181l-181 -190h188v9z" />
<glyph unicode="&#xbd;" horiz-adv-x="826" d="M94 282l7 155l-5 158h-76l1 30l-1 29q57 0 87 29l25 -1l25 1l-7 -246l7 -155l-32 1zM133 0l383 680h48l-382 -680h-49zM801 76l-1 -36l1 -24h-319v51q43 71 139 115q69 33 98.5 56t29.5 56q0 28 -22 43.5t-57 15.5q-109 0 -153 -70l-47 35q64 96 186 96q71 0 110.5 -33 t39.5 -87q0 -16 -4 -30.5t-8.5 -24.5t-16.5 -21.5t-17.5 -17t-24 -15t-23.5 -12t-28 -12.5t-26 -12q-65 -30 -116 -73h259z" />
<glyph unicode="&#xbe;" horiz-adv-x="956" d="M289 0l383 680h48l-382 -680h-49zM20 335l39 50q66 -53 150 -53q40 0 71 14t31 48q0 62 -118 62h-69l2 29l-2 30h53q123 0 123 53q0 27 -30.5 39.5t-72.5 12.5q-73 0 -124 -43l-38 47q56 56 157 56q62 0 107 -25t45 -80q0 -27 -12.5 -46.5t-22 -25.5t-26.5 -15 q74 -26 74 -95q0 -63 -46.5 -92t-116.5 -29q-114 0 -174 63zM587 108l1 28l-1 30l225 247l39 -1l36 1l-7 -238v-9h56l-1 -30l1 -28h-53l4 -92l-32 2l-30 -2l4 92h-242zM832 175l-7 181l-181 -190h188v9z" />
<glyph unicode="&#xbf;" horiz-adv-x="521" d="M338 471v-110h-110v110l57 -3zM319 302v-80q0 -44 -47 -81q-19 -15 -44 -35t-39 -30.5t-31.5 -24.5t-26.5 -22t-20 -18.5t-16.5 -17t-10.5 -14t-6.5 -14.5t-1.5 -14q0 -41 58 -61t147 -20q79 0 166 25l-3 -48l3 -43q-128 -17 -188 -17q-48 0 -89.5 8t-79.5 25.5t-60 51.5 t-22 82q0 45 40 92t168 138q31 22 31 51v67h72z" />
<glyph unicode="&#xc0;" horiz-adv-x="731" d="M336 712l-138 140h100l128 -140h-90zM646 0l-75 167h-403l-73 -167h-96l165 333l148 316l51 -2l49 2l159 -337l157 -312h-82zM363 577l-136 -276l-22 -50h328l-18 39z" />
<glyph unicode="&#xc1;" horiz-adv-x="731" d="M322 711l97 140h122l-142 -140h-77zM646 0l-75 167h-403l-73 -167h-96l165 333l148 316l51 -2l49 2l159 -337l157 -312h-82zM363 577l-136 -276l-22 -50h328l-18 39z" />
<glyph unicode="&#xc2;" horiz-adv-x="731" d="M322 711l97 140h122l-142 -140h-77zM646 0l-75 167h-403l-73 -167h-96l165 333l148 316l51 -2l49 2l159 -337l157 -312h-82zM363 577l-136 -276l-22 -50h328l-18 39z" />
<glyph unicode="&#xc3;" horiz-adv-x="731" d="M438 822h63q0 -40 -21.5 -69.5t-57.5 -29.5q-23 0 -51.5 17.5t-41.5 17.5q-15 0 -25 -11t-10 -29h-60q0 39 18 68t55 29q25 0 56 -17.5t42 -17.5q14 0 23.5 12.5t9.5 29.5zM646 0l-75 167h-403l-73 -167h-96l165 333l148 316l51 -2l49 2l159 -337l157 -312h-82zM363 577 l-136 -276l-22 -50h328l-18 39z" />
<glyph unicode="&#xc4;" horiz-adv-x="731" d="M516 718h-88v88l46 -2l42 2v-88zM232 718v88l46 -2l42 2v-88h-88zM646 0l-75 167h-403l-73 -167h-96l165 333l148 316l51 -2l49 2l159 -337l157 -312h-82zM363 577l-136 -276l-22 -50h328l-18 39z" />
<glyph unicode="&#xc5;" horiz-adv-x="731" d="M252 816q0 47 28.5 77t83.5 30t84 -30t29 -77q0 -46 -29 -76.5t-84 -30.5t-83.5 30.5t-28.5 76.5zM364 773q71 0 71 43t-71 43q-70 0 -70 -43t70 -43zM646 0l-75 167h-403l-73 -167h-96l165 333l148 316l51 -2l49 2l159 -337l157 -312h-82zM363 577l-136 -276l-22 -50 h328l-18 39z" />
<glyph unicode="&#xc6;" horiz-adv-x="1096" d="M237 352l202 297l130 -2l490 2l-2 -42l2 -42h-493l-5 -185h424l-2 -42l2 -39h-427l-1 -49l7 -165h505l-2 -42l2 -43l-501 2l-86 -2l7 167h-290l-108 -168h-106zM298 322l-46 -71h241l-9 314h-22z" />
<glyph unicode="&#xc7;" horiz-adv-x="750" d="M320 -73l32 42l11 17q-158 14 -240.5 108t-82.5 233q0 162 104.5 250.5t285.5 88.5q158 0 282 -62l-43 -75q-110 56 -247 56q-155 0 -238 -70t-83 -199q0 -111 80.5 -178.5t225.5 -67.5q147 0 271 62l36 -78q-119 -67 -284 -70l-17 -20l-19 -27l2 -2q21 7 44 7 q41 0 67.5 -20t26.5 -53q0 -42 -40.5 -68.5t-99.5 -26.5q-52 0 -108 21l10 24l6 26q46 -16 90 -16q40 0 68 13.5t28 29.5q0 12 -20 20t-52 8q-30 0 -63 -9l-16 20z" />
<glyph unicode="&#xc8;" horiz-adv-x="713" d="M380 712l-138 140h100l128 -140h-90zM99 649l86 -2l491 2l-2 -42l2 -42h-493l-5 -185h424l-2 -41l2 -40h-427l-1 -49l7 -165h505l-2 -42l2 -43l-501 2l-86 -2l11 250z" />
<glyph unicode="&#xc9;" horiz-adv-x="713" d="M322 711l97 140h122l-142 -140h-77zM99 649l86 -2l491 2l-2 -42l2 -42h-493l-5 -185h424l-2 -41l2 -40h-427l-1 -49l7 -165h505l-2 -42l2 -43l-501 2l-86 -2l11 250z" />
<glyph unicode="&#xca;" horiz-adv-x="713" d="M491 711l-102 96l-91 -96h-72l101 135l62 -2l69 2l104 -135h-71zM99 649l86 -2l491 2l-2 -42l2 -42h-493l-5 -185h424l-2 -41l2 -40h-427l-1 -49l7 -165h505l-2 -42l2 -43l-501 2l-86 -2l11 250z" />
<glyph unicode="&#xcb;" horiz-adv-x="713" d="M536 718h-88v88l46 -2l42 2v-88zM252 718v88l46 -2l42 2v-88h-88zM99 649l86 -2l491 2l-2 -42l2 -42h-493l-5 -185h424l-2 -41l2 -40h-427l-1 -49l7 -165h505l-2 -42l2 -43l-501 2l-86 -2l11 250z" />
<glyph unicode="&#xcc;" horiz-adv-x="286" d="M100 712l-138 140h100l128 -140h-90zM100 0l11 250l-11 399l43 -2l43 2l-11 -399l11 -250l-43 2z" />
<glyph unicode="&#xcd;" horiz-adv-x="286" d="M95 711l97 140h122l-142 -140h-77zM100 0l11 250l-11 399l43 -2l43 2l-11 -399l11 -250l-43 2z" />
<glyph unicode="&#xce;" horiz-adv-x="286" d="M246 711l-102 96l-91 -96h-72l101 135l62 -2l69 2l104 -135h-71zM100 0l11 250l-11 399l43 -2l43 2l-11 -399l11 -250l-43 2z" />
<glyph unicode="&#xcf;" horiz-adv-x="286" d="M282 718h-88v88l46 -2l42 2v-88zM-2 718v88l46 -2l42 2v-88h-88zM100 0l11 250l-11 399l43 -2l43 2l-11 -399l11 -250l-43 2z" />
<glyph unicode="&#xd0;" horiz-adv-x="816" d="M54 275l2 41l-2 45h53l-8 288l85 -2l240 2q158 2 255 -80.5t97 -235.5q0 -96 -33.5 -164.5t-91 -104t-119.5 -50.5t-133 -14l-215 2l-85 -2l11 250l-1 25h-55zM174 250l7 -164h230q21 0 39.5 1t51 6.5t59 14.5t56.5 28t50 44t33.5 65t13.5 90q0 64 -24.5 110t-67.5 71 t-92 36.5t-106 11.5h-241l-6 -203h213l-2 -45l2 -41h-215z" />
<glyph unicode="&#xd1;" horiz-adv-x="861" d="M518 822h63q0 -40 -21.5 -69.5t-57.5 -29.5q-23 0 -51.5 17.5t-41.5 17.5q-15 0 -25 -11t-10 -29h-60q0 39 18 68t55 29q25 0 56 -17.5t42 -17.5q14 0 23.5 12.5t9.5 29.5zM99 0l11 250l-15 400h91l486 -550l3 150l-11 400l51 -2l45 2l-11 -400l15 -250h-89l-484 554 l-7 -304l11 -250l-53 2z" />
<glyph unicode="&#xd2;" horiz-adv-x="828" d="M399 712l-138 140h100l128 -140h-90zM40 324q0 157 104.5 249.5t270.5 92.5t269.5 -92.5t103.5 -249.5q0 -84 -32 -151.5t-85.5 -108t-119 -61.5t-136.5 -21q-57 0 -110.5 13t-101.5 40.5t-84 67t-57.5 96.5t-21.5 125zM101 337q0 -71 26.5 -124.5t71.5 -85t99.5 -46.5 t116.5 -15q60 0 114 15.5t99.5 46t72.5 84.5t27 125q0 107 -87.5 176t-225.5 69t-226 -69t-88 -176z" />
<glyph unicode="&#xd3;" horiz-adv-x="828" d="M362 711l97 140h122l-142 -140h-77zM40 324q0 157 104.5 249.5t270.5 92.5t269.5 -92.5t103.5 -249.5q0 -84 -32 -151.5t-85.5 -108t-119 -61.5t-136.5 -21q-57 0 -110.5 13t-101.5 40.5t-84 67t-57.5 96.5t-21.5 125zM101 337q0 -71 26.5 -124.5t71.5 -85t99.5 -46.5 t116.5 -15q60 0 114 15.5t99.5 46t72.5 84.5t27 125q0 107 -87.5 176t-225.5 69t-226 -69t-88 -176z" />
<glyph unicode="&#xd4;" horiz-adv-x="828" d="M525 711l-102 96l-91 -96h-72l101 135l62 -2l69 2l104 -135h-71zM40 324q0 157 104.5 249.5t270.5 92.5t269.5 -92.5t103.5 -249.5q0 -84 -32 -151.5t-85.5 -108t-119 -61.5t-136.5 -21q-57 0 -110.5 13t-101.5 40.5t-84 67t-57.5 96.5t-21.5 125zM101 337 q0 -71 26.5 -124.5t71.5 -85t99.5 -46.5t116.5 -15q60 0 114 15.5t99.5 46t72.5 84.5t27 125q0 107 -87.5 176t-225.5 69t-226 -69t-88 -176z" />
<glyph unicode="&#xd5;" horiz-adv-x="828" d="M493 822h63q0 -40 -21.5 -69.5t-57.5 -29.5q-23 0 -51.5 17.5t-41.5 17.5q-15 0 -25 -11t-10 -29h-60q0 39 18 68t55 29q25 0 56 -17.5t42 -17.5q14 0 23.5 12.5t9.5 29.5zM40 324q0 157 104.5 249.5t270.5 92.5t269.5 -92.5t103.5 -249.5q0 -84 -32 -151.5t-85.5 -108 t-119 -61.5t-136.5 -21q-57 0 -110.5 13t-101.5 40.5t-84 67t-57.5 96.5t-21.5 125zM101 337q0 -71 26.5 -124.5t71.5 -85t99.5 -46.5t116.5 -15q60 0 114 15.5t99.5 46t72.5 84.5t27 125q0 107 -87.5 176t-225.5 69t-226 -69t-88 -176z" />
<glyph unicode="&#xd6;" horiz-adv-x="828" d="M562 718h-88v88l46 -2l42 2v-88zM278 718v88l46 -2l42 2v-88h-88zM40 324q0 157 104.5 249.5t270.5 92.5t269.5 -92.5t103.5 -249.5q0 -84 -32 -151.5t-85.5 -108t-119 -61.5t-136.5 -21q-57 0 -110.5 13t-101.5 40.5t-84 67t-57.5 96.5t-21.5 125zM101 337 q0 -71 26.5 -124.5t71.5 -85t99.5 -46.5t116.5 -15q60 0 114 15.5t99.5 46t72.5 84.5t27 125q0 107 -87.5 176t-225.5 69t-226 -69t-88 -176z" />
<glyph unicode="&#xd7;" horiz-adv-x="471" d="M394 425l37 -39l-159 -164l159 -167l-37 -39l-159 166l-158 -166l-37 38l159 167l-159 165l37 39l158 -166z" />
<glyph unicode="&#xd8;" horiz-adv-x="828" d="M54 -16l90 93q-104 92 -104 247q0 157 104.5 249.5t270.5 92.5q141 0 237 -67l65 67h74l-98 -101q95 -92 95 -241q0 -84 -32 -151.5t-85.5 -108t-119 -61.5t-136.5 -21q-131 0 -228 63l-59 -61h-74zM101 337q0 -135 95 -207l400 412q-80 40 -181 40q-138 0 -226 -69 t-88 -176zM728 337q0 107 -86 175l-399 -410q73 -36 172 -36q60 0 114 15.5t99.5 46t72.5 84.5t27 125z" />
<glyph unicode="&#xd9;" horiz-adv-x="875" d="M438 712l-138 140h100l128 -140h-90zM769 250q0 -63 -20.5 -112t-53 -78t-77.5 -47t-88.5 -24.5t-92.5 -6.5t-92.5 6.5t-88.5 24.5t-77 47t-52.5 78t-20.5 112l-11 399l43 -2l43 2l-11 -399q0 -91 69.5 -137t197.5 -46t198 46t70 137l-11 399l43 -2l43 2z" />
<glyph unicode="&#xda;" horiz-adv-x="875" d="M360 711l97 140h122l-142 -140h-77zM769 250q0 -63 -20.5 -112t-53 -78t-77.5 -47t-88.5 -24.5t-92.5 -6.5t-92.5 6.5t-88.5 24.5t-77 47t-52.5 78t-20.5 112l-11 399l43 -2l43 2l-11 -399q0 -91 69.5 -137t197.5 -46t198 46t70 137l-11 399l43 -2l43 2z" />
<glyph unicode="&#xdb;" horiz-adv-x="875" d="M534 711l-102 96l-91 -96h-72l101 135l62 -2l69 2l104 -135h-71zM769 250q0 -63 -20.5 -112t-53 -78t-77.5 -47t-88.5 -24.5t-92.5 -6.5t-92.5 6.5t-88.5 24.5t-77 47t-52.5 78t-20.5 112l-11 399l43 -2l43 2l-11 -399q0 -91 69.5 -137t197.5 -46t198 46t70 137l-11 399 l43 -2l43 2z" />
<glyph unicode="&#xdc;" horiz-adv-x="875" d="M579 718h-88v88l46 -2l42 2v-88zM295 718v88l46 -2l42 2v-88h-88zM769 250q0 -63 -20.5 -112t-53 -78t-77.5 -47t-88.5 -24.5t-92.5 -6.5t-92.5 6.5t-88.5 24.5t-77 47t-52.5 78t-20.5 112l-11 399l43 -2l43 2l-11 -399q0 -91 69.5 -137t197.5 -46t198 46t70 137l-11 399 l43 -2l43 2z" />
<glyph unicode="&#xdd;" horiz-adv-x="657" d="M276 711l97 140h122l-142 -140h-77zM283 0l6 250v2l-107 159l-189 239h112l130 -194l91 -119l91 121l127 192h123l-197 -242l-109 -156v-2l8 -250l-43 2z" />
<glyph unicode="&#xde;" horiz-adv-x="749" d="M73 0l11 250l-11 399l43 -2l43 2l-3 -103l280 2q105 1 172.5 -44.5t67.5 -147.5q0 -54 -19.5 -93t-54 -60.5t-75.5 -31t-91 -9.5l-284 2l7 -164l-43 2zM148 250v-4h269q101 0 150.5 23.5t49.5 85.5q0 63 -49.5 86t-150.5 23h-263z" />
<glyph unicode="&#xdf;" horiz-adv-x="691" d="M651 185q0 -34 -10.5 -66t-34 -63t-69 -50t-106.5 -19q-85 0 -185 31l18 40l12 42q83 -24 158 -24q79 0 118.5 30.5t38.5 85.5q-1 70 -64.5 97t-190.5 27h-78l2 42l-2 40q42 0 72 1t73 6.5t70.5 15.5t47.5 29.5t20 46.5q0 88 -181 88q-105 0 -145.5 -35t-40.5 -111v-190 l11 -249l-43 2l-43 -2l10 226v231q0 105 61.5 157.5t191.5 52.5q70 0 119.5 -14.5t74 -39.5t34.5 -51t10 -56q0 -102 -105 -137v-2q67 -15 111.5 -61t44.5 -121z" />
<glyph unicode="&#xe0;" horiz-adv-x="648" d="M314 582l-138 140h100l128 -140h-90zM486 0l3 118q-136 -134 -275 -134q-29 0 -56.5 5.5t-58.5 19.5t-50 44.5t-19 74.5q0 46 23 78.5t60 51t100 29.5t125.5 14t153.5 3v34q0 34 -30 56.5t-66.5 29.5t-79.5 7q-116 0 -215 -62l-36 75q114 68 259 69q234 -2 234 -180v-84 l10 -249l-43 2zM91 140q0 -68 118 -68q163 0 282 115l1 41q-120 0 -192 -3.5t-121.5 -13.5t-68.5 -26.5t-19 -44.5z" />
<glyph unicode="&#xe1;" horiz-adv-x="628" d="M256 582l97 140h122l-142 -140h-77zM486 0l3 118q-136 -134 -275 -134q-29 0 -56.5 5.5t-58.5 19.5t-50 44.5t-19 74.5q0 46 23 78.5t60 51t100 29.5t125.5 14t153.5 3v34q0 34 -30 56.5t-66.5 29.5t-79.5 7q-116 0 -215 -62l-36 75q114 68 259 69q234 -2 234 -180v-84 l10 -249l-43 2zM91 140q0 -68 118 -68q163 0 282 115l1 41q-120 0 -192 -3.5t-121.5 -13.5t-68.5 -26.5t-19 -44.5z" />
<glyph unicode="&#xe2;" horiz-adv-x="648" d="M421 582l-102 96l-91 -96h-72l101 135l62 -2l69 2l104 -135h-71zM486 0l3 118q-136 -134 -275 -134q-29 0 -56.5 5.5t-58.5 19.5t-50 44.5t-19 74.5q0 46 23 78.5t60 51t100 29.5t125.5 14t153.5 3v34q0 34 -30 56.5t-66.5 29.5t-79.5 7q-116 0 -215 -62l-36 75 q114 68 259 69q234 -2 234 -180v-84l10 -249l-43 2zM91 140q0 -68 118 -68q163 0 282 115l1 41q-120 0 -192 -3.5t-121.5 -13.5t-68.5 -26.5t-19 -44.5z" />
<glyph unicode="&#xe3;" horiz-adv-x="628" d="M405 700h63q0 -40 -21.5 -69.5t-57.5 -29.5q-23 0 -51.5 17.5t-41.5 17.5q-15 0 -25 -11t-10 -29h-60q0 39 18 68t55 29q25 0 56 -17.5t42 -17.5q14 0 23.5 12.5t9.5 29.5zM486 0l3 118q-136 -134 -275 -134q-29 0 -56.5 5.5t-58.5 19.5t-50 44.5t-19 74.5q0 46 23 78.5 t60 51t100 29.5t125.5 14t153.5 3v34q0 34 -30 56.5t-66.5 29.5t-79.5 7q-116 0 -215 -62l-36 75q114 68 259 69q234 -2 234 -180v-84l10 -249l-43 2zM91 140q0 -68 118 -68q163 0 282 115l1 41q-120 0 -192 -3.5t-121.5 -13.5t-68.5 -26.5t-19 -44.5z" />
<glyph unicode="&#xe4;" horiz-adv-x="648" d="M473 630h-88v88l46 -2l42 2v-88zM189 630v88l46 -2l42 2v-88h-88zM486 0l3 118q-136 -134 -275 -134q-29 0 -56.5 5.5t-58.5 19.5t-50 44.5t-19 74.5q0 46 23 78.5t60 51t100 29.5t125.5 14t153.5 3v34q0 34 -30 56.5t-66.5 29.5t-79.5 7q-116 0 -215 -62l-36 75 q114 68 259 69q234 -2 234 -180v-84l10 -249l-43 2zM91 140q0 -68 118 -68q163 0 282 115l1 41q-120 0 -192 -3.5t-121.5 -13.5t-68.5 -26.5t-19 -44.5z" />
<glyph unicode="&#xe5;" horiz-adv-x="628" d="M204 683q0 47 28.5 77t83.5 30t84 -30t29 -77q0 -46 -29 -76.5t-84 -30.5t-83.5 30.5t-28.5 76.5zM316 640q71 0 71 43t-71 43q-70 0 -70 -43t70 -43zM486 0l3 118q-136 -134 -275 -134q-29 0 -56.5 5.5t-58.5 19.5t-50 44.5t-19 74.5q0 46 23 78.5t60 51t100 29.5 t125.5 14t153.5 3v34q0 34 -30 56.5t-66.5 29.5t-79.5 7q-116 0 -215 -62l-36 75q114 68 259 69q234 -2 234 -180v-84l10 -249l-43 2zM91 140q0 -68 118 -68q163 0 282 115l1 41q-120 0 -192 -3.5t-121.5 -13.5t-68.5 -26.5t-19 -44.5z" />
<glyph unicode="&#xe6;" horiz-adv-x="1077" d="M486 0l3 116q-104 -132 -268 -132q-32 0 -61 5.5t-60.5 19.5t-50.5 44.5t-19 74.5q0 45 23 76.5t60.5 50t100 29t125.5 13.5t154 3l-1 36v2q0 52 -33 70.5t-101 18.5q-149 0 -257 -58l-16 40l-20 35q114 68 277 68q93 0 143 -24t65 -85q60 109 219 109q123 0 195.5 -55 t72.5 -167q0 -30 -6 -65l-256 2l-216 -4v-1q6 -62 67.5 -106t155.5 -44q120 0 193 71l54 -78q-109 -80 -223 -79q-77 0 -140 30.5t-102 84.5l4 -101l-43 2zM562 301l213 -3l197 4q0 57 -56 91t-145 34q-91 0 -150 -34.5t-59 -91.5zM91 139q0 -67 132 -67q189 0 268 114l1 38 q-235 0 -318 -16.5t-83 -68.5z" />
<glyph unicode="&#xe7;" horiz-adv-x="586" d="M252 -89l-17 16l32 42l11 17q-110 10 -173 73t-63 180q0 131 83 202t212 71q116 0 209 -57l-49 -78q-74 54 -169 50q-89 2 -154 -44.5t-65 -136.5q0 -79 54 -126.5t155 -47.5q105 0 179 53l49 -78q-78 -57 -201 -63l-17 -20l-19 -27l2 -2q21 7 44 7q41 0 67.5 -20 t26.5 -53q0 -42 -40.5 -68.5t-99.5 -26.5q-52 0 -108 21l10 24l6 26q46 -16 90 -16q40 0 68 13.5t28 29.5q0 12 -19.5 20t-52.5 8q-30 0 -63 -9z" />
<glyph unicode="&#xe8;" horiz-adv-x="625" d="M314 582l-138 140h100l128 -140h-90zM523 143l54 -78q-104 -81 -255 -81q-122 0 -202 67t-80 192q0 119 73.5 194t203.5 75q123 0 195.5 -55.5t72.5 -169.5q0 -30 -6 -66l-256 2l-216 -4q0 -62 59.5 -104.5t141.5 -42.5q64 0 121 21.5t94 49.5zM110 293l213 -3l198 4 q0 61 -56.5 97t-145.5 36q-91 0 -150 -36t-59 -98z" />
<glyph unicode="&#xe9;" horiz-adv-x="625" d="M256 582l97 140h122l-142 -140h-77zM523 143l54 -78q-104 -81 -255 -81q-122 0 -202 67t-80 192q0 119 73.5 194t203.5 75q123 0 195.5 -55.5t72.5 -169.5q0 -30 -6 -66l-256 2l-216 -4q0 -62 59.5 -104.5t141.5 -42.5q64 0 121 21.5t94 49.5zM110 293l213 -3l198 4 q0 61 -56.5 97t-145.5 36q-91 0 -150 -36t-59 -98z" />
<glyph unicode="&#xea;" horiz-adv-x="625" d="M420 582l-102 96l-91 -96h-72l101 135l62 -2l69 2l104 -135h-71zM523 143l54 -78q-104 -81 -255 -81q-122 0 -202 67t-80 192q0 119 73.5 194t203.5 75q123 0 195.5 -55.5t72.5 -169.5q0 -30 -6 -66l-256 2l-216 -4q0 -62 59.5 -104.5t141.5 -42.5q64 0 121 21.5t94 49.5 zM110 293l213 -3l198 4q0 61 -56.5 97t-145.5 36q-91 0 -150 -36t-59 -98z" />
<glyph unicode="&#xeb;" horiz-adv-x="625" d="M463 630h-88v88l46 -2l42 2v-88zM179 630v88l46 -2l42 2v-88h-88zM523 143l54 -78q-104 -81 -255 -81q-122 0 -202 67t-80 192q0 119 73.5 194t203.5 75q123 0 195.5 -55.5t72.5 -169.5q0 -30 -6 -66l-256 2l-216 -4q0 -62 59.5 -104.5t141.5 -42.5q64 0 121 21.5 t94 49.5zM110 293l213 -3l198 4q0 61 -56.5 97t-145.5 36q-91 0 -150 -36t-59 -98z" />
<glyph unicode="&#xec;" horiz-adv-x="242" d="M77 582l-138 140h100l128 -140h-90zM78 0l11 249l-11 249l43 -2l43 2l-11 -249l11 -249l-43 2z" />
<glyph unicode="&#xed;" horiz-adv-x="242" d="M75 582l97 140h122l-142 -140h-77zM78 0l11 249l-11 249l43 -2l43 2l-11 -249l11 -249l-43 2z" />
<glyph unicode="&#xee;" horiz-adv-x="242" d="M223 582l-102 96l-91 -96h-72l101 135l62 -2l69 2l104 -135h-71zM78 0l11 249l-11 249l43 -2l43 2l-11 -249l11 -249l-43 2z" />
<glyph unicode="&#xef;" horiz-adv-x="242" d="M264 630h-88v88l46 -2l42 2v-88zM-20 630v88l46 -2l42 2v-88h-88zM78 0l11 249l-11 249l43 -2l43 2l-11 -249l11 -249l-43 2z" />
<glyph unicode="&#xf0;" horiz-adv-x="563" d="M224 498h-62l90 74q-49 18 -98 25l40 85q65 -19 127 -54l70 57h60l-96 -79q89 -61 143.5 -153.5t54.5 -212.5q0 -121 -70.5 -188t-186.5 -67t-186 67t-70 188q0 102 69 170.5t177 68.5q113 0 182 -75q-61 97 -175 151zM296 397q-98 0 -148 -50.5t-50 -115.5 q0 -75 53 -120t145 -45t145 45t53 120q0 65 -50 115.5t-148 50.5z" />
<glyph unicode="&#xf1;" horiz-adv-x="693" d="M433 697h63q0 -40 -21.5 -69.5t-57.5 -29.5q-23 0 -51.5 17.5t-41.5 17.5q-15 0 -25 -11t-10 -29h-60q0 39 18 68t55 29q25 0 56 -17.5t42 -17.5q14 0 23.5 12.5t9.5 29.5zM85 0l11 249l-11 249l43 -2l43 2l-3 -66q44 36 108 58.5t130 22.5q190 0 190 -184l12 -329l-39 2 l-39 -2l2 313q0 53 -46 83.5t-112 30.5q-61 0 -118 -25t-92 -61l-4 -92l11 -249l-43 2z" />
<glyph unicode="&#xf2;" horiz-adv-x="653" d="M313 582l-138 140h100l128 -140h-90zM327 -16q-129 0 -208 70.5t-79 193.5q0 116 78.5 190t208.5 74q129 0 207.5 -74t78.5 -190q0 -123 -78.5 -193.5t-207.5 -70.5zM327 70q101 0 160 47.5t59 124.5q0 75 -55 130t-164 55q-110 0 -165 -55t-55 -130q0 -77 59.5 -124.5 t160.5 -47.5z" />
<glyph unicode="&#xf3;" horiz-adv-x="653" d="M263 582l97 140h122l-142 -140h-77zM327 -16q-129 0 -208 70.5t-79 193.5q0 116 78.5 190t208.5 74q129 0 207.5 -74t78.5 -190q0 -123 -78.5 -193.5t-207.5 -70.5zM327 70q101 0 160 47.5t59 124.5q0 75 -55 130t-164 55q-110 0 -165 -55t-55 -130q0 -77 59.5 -124.5 t160.5 -47.5z" />
<glyph unicode="&#xf4;" horiz-adv-x="653" d="M423 582l-102 96l-91 -96h-72l101 135l62 -2l69 2l104 -135h-71zM327 -16q-129 0 -208 70.5t-79 193.5q0 116 78.5 190t208.5 74q129 0 207.5 -74t78.5 -190q0 -123 -78.5 -193.5t-207.5 -70.5zM327 70q101 0 160 47.5t59 124.5q0 75 -55 130t-164 55q-110 0 -165 -55 t-55 -130q0 -77 59.5 -124.5t160.5 -47.5z" />
<glyph unicode="&#xf5;" horiz-adv-x="653" d="M397 697h63q0 -40 -21.5 -69.5t-57.5 -29.5q-23 0 -51.5 17.5t-41.5 17.5q-15 0 -25 -11t-10 -29h-60q0 39 18 68t55 29q25 0 56 -17.5t42 -17.5q14 0 23.5 12.5t9.5 29.5zM327 -16q-129 0 -208 70.5t-79 193.5q0 116 78.5 190t208.5 74q129 0 207.5 -74t78.5 -190 q0 -123 -78.5 -193.5t-207.5 -70.5zM327 70q101 0 160 47.5t59 124.5q0 75 -55 130t-164 55q-110 0 -165 -55t-55 -130q0 -77 59.5 -124.5t160.5 -47.5z" />
<glyph unicode="&#xf6;" horiz-adv-x="653" d="M468 630h-88v88l46 -2l42 2v-88zM184 630v88l46 -2l42 2v-88h-88zM327 -16q-129 0 -208 70.5t-79 193.5q0 116 78.5 190t208.5 74q129 0 207.5 -74t78.5 -190q0 -123 -78.5 -193.5t-207.5 -70.5zM327 70q101 0 160 47.5t59 124.5q0 75 -55 130t-164 55q-110 0 -165 -55 t-55 -130q0 -77 59.5 -124.5t160.5 -47.5z" />
<glyph unicode="&#xf7;" horiz-adv-x="512" d="M257 464q21 0 36 -15.5t15 -37.5t-15 -37.5t-36 -15.5q-22 0 -37 15.5t-15 37.5t15 37.5t37 15.5zM40 198l2 30l-2 30h432l-2 -30l2 -30h-432zM257 98q21 0 36 -16t15 -38t-15 -37.5t-36 -15.5q-22 0 -37 15.5t-15 37.5q0 23 15 38.5t37 15.5z" />
<glyph unicode="&#xf8;" horiz-adv-x="653" d="M31 -22l82 84q-73 73 -73 196q0 109 79 181.5t208 72.5q104 0 177 -49l58 59h74l-91 -93q68 -70 68 -171q0 -130 -78 -202t-208 -72q-102 0 -173 45l-49 -51h-74zM107 248q0 -82 60 -130l279 285q-51 24 -119 24q-109 0 -164.5 -54t-55.5 -125zM327 70q101 0 160 48.5 t59 129.5q0 75 -56 125l-276 -283q49 -20 113 -20z" />
<glyph unicode="&#xf9;" horiz-adv-x="665" d="M314 582l-138 140h100l128 -140h-90zM85 498l39 -2l39 2l-9 -249l1 -64q0 -58 40.5 -85t95.5 -29q62 0 118.5 21t90.5 54l5 103l-11 249l43 -2l43 2l-11 -249l11 -249l-43 2l-43 -2l3 66q-98 -80 -227 -80q-21 0 -40 2.5t-45.5 13.5t-45.5 29.5t-33 54t-14 84.5l1 79z " />
<glyph unicode="&#xfa;" horiz-adv-x="665" d="M273 582l97 140h122l-142 -140h-77zM85 498l39 -2l39 2l-9 -249l1 -64q0 -58 40.5 -85t95.5 -29q62 0 118.5 21t90.5 54l5 103l-11 249l43 -2l43 2l-11 -249l11 -249l-43 2l-43 -2l3 66q-98 -80 -227 -80q-21 0 -40 2.5t-45.5 13.5t-45.5 29.5t-33 54t-14 84.5l1 79z" />
<glyph unicode="&#xfb;" horiz-adv-x="665" d="M443 584l-102 96l-91 -96h-72l101 135l62 -2l69 2l104 -135h-71zM85 498l39 -2l39 2l-9 -249l1 -64q0 -58 40.5 -85t95.5 -29q62 0 118.5 21t90.5 54l5 103l-11 249l43 -2l43 2l-11 -249l11 -249l-43 2l-43 -2l3 66q-98 -80 -227 -80q-21 0 -40 2.5t-45.5 13.5 t-45.5 29.5t-33 54t-14 84.5l1 79z" />
<glyph unicode="&#xfc;" horiz-adv-x="665" d="M474 630h-88v88l46 -2l42 2v-88zM190 630v88l46 -2l42 2v-88h-88zM85 498l39 -2l39 2l-9 -249l1 -64q0 -58 40.5 -85t95.5 -29q62 0 118.5 21t90.5 54l5 103l-11 249l43 -2l43 2l-11 -249l11 -249l-43 2l-43 -2l3 66q-98 -80 -227 -80q-21 0 -40 2.5t-45.5 13.5 t-45.5 29.5t-33 54t-14 84.5l1 79z" />
<glyph unicode="&#xfd;" horiz-adv-x="571" d="M243 582l97 140h122l-142 -140h-77zM109 -174q-45 0 -92 14l15 85q34 -10 63 -10q103 0 148 95l-93 190l-161 300h92l137 -276l63 -110l70 126l129 260h99l-160 -292l-134 -272q-55 -110 -176 -110z" />
<glyph unicode="&#xfe;" horiz-adv-x="659" d="M164 77l-5 9l7 -235l-43 2l-43 -2l11 401l-11 410l43 -2l43 2l-2 -82v-172q99 85 219 85q66 0 114.5 -22.5t73.5 -60.5t36.5 -78.5t11.5 -85.5q0 -34 -6 -66t-22.5 -66t-43 -58.5t-70 -40.5t-100.5 -16q-110 0 -213 78zM164 152q86 -72 205 -72q87 0 139 39.5t52 122.5 q0 75 -45.5 117t-142.5 42q-119 0 -208 -68v-181z" />
<glyph unicode="&#xff;" horiz-adv-x="571" d="M423 630h-88v88l46 -2l42 2v-88zM139 630v88l46 -2l42 2v-88h-88zM109 -174q-45 0 -92 14l15 85q34 -10 63 -10q103 0 148 95l-93 190l-161 300h92l137 -276l63 -110l70 126l129 260h99l-160 -292l-134 -272q-55 -110 -176 -110z" />
<glyph unicode="&#x100;" horiz-adv-x="731" d="M233 740v53h267v-53h-267zM646 0l-75 167h-403l-73 -167h-96l165 333l148 316l51 -2l49 2l159 -337l157 -312h-82zM363 577l-136 -276l-22 -50h328l-18 39z" />
<glyph unicode="&#x101;" horiz-adv-x="628" d="M214 613v53h267v-53h-267zM486 0l3 118q-136 -134 -275 -134q-29 0 -56.5 5.5t-58.5 19.5t-50 44.5t-19 74.5q0 46 23 78.5t60 51t100 29.5t125.5 14t153.5 3v34q0 34 -30 56.5t-66.5 29.5t-79.5 7q-116 0 -215 -62l-36 75q114 68 259 69q234 -2 234 -180v-84l10 -249 l-43 2zM91 140q0 -68 118 -68q163 0 282 115l1 41q-120 0 -192 -3.5t-121.5 -13.5t-68.5 -26.5t-19 -44.5z" />
<glyph unicode="&#x102;" horiz-adv-x="731" d="M284 830q0 -28 25 -43t54 -15q28 0 53 15.5t25 42.5h46q0 -47 -29.5 -83.5t-94.5 -36.5t-94.5 36.5t-29.5 83.5h45zM646 0l-75 167h-403l-73 -167h-96l165 333l148 316l51 -2l49 2l159 -337l157 -312h-82zM363 577l-136 -276l-22 -50h328l-18 39z" />
<glyph unicode="&#x103;" horiz-adv-x="628" d="M254 701q0 -28 25 -43t54 -15q28 0 53 15.5t25 42.5h46q0 -47 -29.5 -83.5t-94.5 -36.5t-94.5 36.5t-29.5 83.5h45zM486 0l3 118q-136 -134 -275 -134q-29 0 -56.5 5.5t-58.5 19.5t-50 44.5t-19 74.5q0 46 23 78.5t60 51t100 29.5t125.5 14t153.5 3v34q0 34 -30 56.5 t-66.5 29.5t-79.5 7q-116 0 -215 -62l-36 75q114 68 259 69q234 -2 234 -180v-84l10 -249l-43 2zM91 140q0 -68 118 -68q163 0 282 115l1 41q-120 0 -192 -3.5t-121.5 -13.5t-68.5 -26.5t-19 -44.5z" />
<glyph unicode="&#x104;" horiz-adv-x="731" d="M738 -185q-40 -20 -82 -20q-46 0 -73.5 23.5t-27.5 58.5q0 69 91 123l-75 167h-403l-73 -167h-96l165 333l148 316l51 -2l49 2l159 -337l157 -312h-24q-56 -40 -75.5 -62.5t-19.5 -50.5q0 -19 17.5 -27.5t38.5 -8.5t55 13l7 -24zM363 577l-136 -276l-22 -50h328l-18 39z " />
<glyph unicode="&#x105;" horiz-adv-x="628" d="M573 -185q-40 -20 -82 -20q-46 0 -73.5 23.5t-27.5 58.5q0 71 96 126l3 115q-136 -134 -275 -134q-29 0 -56.5 5.5t-58.5 19.5t-50 44.5t-19 74.5q0 46 23 78.5t60 51t100 29.5t125.5 14t153.5 3v34q0 34 -30 56.5t-66.5 29.5t-79.5 7q-116 0 -215 -62l-36 75 q114 68 259 69q234 -2 234 -180v-84l10 -249l-27 1q-57 -40 -77 -63t-20 -51q0 -19 17.5 -27.5t38.5 -8.5t55 13l7 -24zM91 140q0 -68 118 -68q163 0 282 115l1 41q-120 0 -192 -3.5t-121.5 -13.5t-68.5 -26.5t-19 -44.5z" />
<glyph unicode="&#x106;" horiz-adv-x="750" d="M395 710l97 140h122l-142 -140h-77zM678 132l36 -78q-124 -70 -298 -70q-184 0 -280 96.5t-96 246.5q0 162 104.5 250.5t285.5 88.5q158 0 282 -62l-43 -75q-110 56 -247 56q-155 0 -238 -70t-83 -199q0 -111 80.5 -178.5t225.5 -67.5q147 0 271 62z" />
<glyph unicode="&#x107;" horiz-adv-x="586" d="M298 582l97 140h122l-142 -140h-77zM546 455l-49 -78q-70 50 -169 50q-90 0 -154.5 -45.5t-64.5 -135.5q0 -79 54 -126.5t155 -47.5q105 0 179 53l49 -78q-88 -63 -223 -63q-130 0 -205.5 63t-75.5 192q0 131 83 202t212 71q116 0 209 -57z" />
<glyph unicode="&#x108;" horiz-adv-x="750" d="M515 711l-102 96l-91 -96h-72l101 135l62 -2l69 2l104 -135h-71zM678 132l36 -78q-124 -70 -298 -70q-184 0 -280 96.5t-96 246.5q0 162 104.5 250.5t285.5 88.5q158 0 282 -62l-43 -75q-110 56 -247 56q-155 0 -238 -70t-83 -199q0 -111 80.5 -178.5t225.5 -67.5 q147 0 271 62z" />
<glyph unicode="&#x109;" horiz-adv-x="586" d="M435 582l-102 96l-91 -96h-72l101 135l62 -2l69 2l104 -135h-71zM546 455l-49 -78q-70 50 -169 50q-90 0 -154.5 -45.5t-64.5 -135.5q0 -79 54 -126.5t155 -47.5q105 0 179 53l49 -78q-88 -63 -223 -63q-130 0 -205.5 63t-75.5 192q0 131 83 202t212 71q116 0 209 -57z " />
<glyph unicode="&#x10a;" horiz-adv-x="750" d="M382 727v88l46 -2l42 2v-88h-88zM678 132l36 -78q-124 -70 -298 -70q-184 0 -280 96.5t-96 246.5q0 162 104.5 250.5t285.5 88.5q158 0 282 -62l-43 -75q-110 56 -247 56q-155 0 -238 -70t-83 -199q0 -111 80.5 -178.5t225.5 -67.5q147 0 271 62z" />
<glyph unicode="&#x10b;" horiz-adv-x="586" d="M293 630v88l46 -2l42 2v-88h-88zM546 455l-49 -78q-70 50 -169 50q-90 0 -154.5 -45.5t-64.5 -135.5q0 -79 54 -126.5t155 -47.5q105 0 179 53l49 -78q-88 -63 -223 -63q-130 0 -205.5 63t-75.5 192q0 131 83 202t212 71q116 0 209 -57z" />
<glyph unicode="&#x10c;" horiz-adv-x="750" d="M532 846h71l-104 -135l-69 2l-62 -2l-101 135h72l91 -96zM678 132l36 -78q-124 -70 -298 -70q-184 0 -280 96.5t-96 246.5q0 162 104.5 250.5t285.5 88.5q158 0 282 -62l-43 -75q-110 56 -247 56q-155 0 -238 -70t-83 -199q0 -111 80.5 -178.5t225.5 -67.5q147 0 271 62z " />
<glyph unicode="&#x10d;" horiz-adv-x="586" d="M440 717h71l-104 -135l-69 2l-62 -2l-101 135h72l91 -96zM546 455l-49 -78q-70 50 -169 50q-90 0 -154.5 -45.5t-64.5 -135.5q0 -79 54 -126.5t155 -47.5q105 0 179 53l49 -78q-88 -63 -223 -63q-130 0 -205.5 63t-75.5 192q0 131 83 202t212 71q116 0 209 -57z" />
<glyph unicode="&#x10e;" horiz-adv-x="816" d="M467 846h71l-104 -135l-69 2l-62 -2l-101 135h72l91 -96zM99 649l85 -2l240 2q158 2 255 -80.5t97 -235.5q0 -96 -33.5 -164.5t-91 -104t-119.5 -50.5t-133 -14l-215 2l-85 -2l11 250zM174 250l7 -164h230q21 0 39.5 1t51 6.5t59 14.5t56.5 28t50 44t33.5 65t13.5 90 q0 64 -24.5 110t-67.5 71t-92 36.5t-106 11.5h-241z" />
<glyph unicode="&#x10f;" horiz-adv-x="869" d="M700 474v226h80l-45 -226h-35zM628 0l-43 2l-43 -2l4 81q-99 -97 -235 -97q-67 0 -121 25t-85.5 64.5t-48 84.5t-16.5 90t16.5 90t48.5 84.5t87 64.5t125 25q135 0 232 -100l-7 287l43 -2l43 2l-11 -450zM108 248q0 -76 63 -126t155 -50q121 0 223 80l4 97l-2 93 q-113 85 -226 85q-91 0 -154 -51.5t-63 -127.5z" />
<glyph unicode="&#x110;" horiz-adv-x="816" d="M54 275l2 41l-2 45h53l-8 288l85 -2l240 2q159 0 255.5 -81.5t96.5 -234.5q0 -96 -33.5 -164.5t-91 -104t-119.5 -50.5t-133 -14l-215 2l-85 -2l11 250l-1 25h-55zM174 250l7 -164h230q21 0 39.5 1t51 6.5t59 14.5t56.5 28t50 44t33.5 65t13.5 90q0 64 -24.5 110 t-67.5 71t-92 36.5t-106 11.5h-241l-6 -203h213l-2 -45l2 -41h-215z" />
<glyph unicode="&#x111;" horiz-adv-x="707" d="M628 0l-43 2l-43 -2l4 81q-99 -97 -235 -97q-67 0 -121 25t-85.5 64.5t-48 84.5t-16.5 90t16.5 90t48.5 84.5t87 64.5t125 25q135 0 232 -100l-4 146h-187l2 33l-2 37h186l-2 71l43 -2l43 2l-2 -71h68l-2 -37l2 -33h-69l-8 -309zM108 248q0 -76 63.5 -127t154.5 -49 q117 -3 223 80l4 97l-2 93q-113 85 -226 85q-91 0 -154 -51.5t-63 -127.5z" />
<glyph unicode="&#x112;" horiz-adv-x="713" d="M259 740v53h267v-53h-267zM99 649l86 -2l491 2l-2 -42l2 -42h-493l-5 -185h424l-2 -41l2 -40h-427l-1 -49l7 -165h505l-2 -42l2 -43l-501 2l-86 -2l11 250z" />
<glyph unicode="&#x113;" horiz-adv-x="625" d="M179 613v53h267v-53h-267zM523 143l54 -78q-104 -81 -255 -81q-122 0 -202 67t-80 192q0 119 73.5 194t203.5 75q123 0 195.5 -55.5t72.5 -169.5q0 -30 -6 -66l-256 2l-216 -4q0 -62 59.5 -104.5t141.5 -42.5q64 0 121 21.5t94 49.5zM110 293l213 -3l198 4q0 61 -56.5 97 t-145.5 36q-91 0 -150 -36t-59 -98z" />
<glyph unicode="&#x114;" horiz-adv-x="713" d="M318 828q0 -28 25 -43t54 -15q28 0 53 15.5t25 42.5h46q0 -47 -29.5 -83.5t-94.5 -36.5t-94.5 36.5t-29.5 83.5h45zM99 649l86 -2l491 2l-2 -42l2 -42h-493l-5 -185h424l-2 -41l2 -40h-427l-1 -49l7 -165h505l-2 -42l2 -43l-501 2l-86 -2l11 250z" />
<glyph unicode="&#x115;" horiz-adv-x="625" d="M233 701q0 -28 25 -43t54 -15q28 0 53 15.5t25 42.5h46q0 -47 -29.5 -83.5t-94.5 -36.5t-94.5 36.5t-29.5 83.5h45zM523 143l54 -78q-104 -81 -255 -81q-122 0 -202 67t-80 192q0 119 73.5 194t203.5 75q123 0 195.5 -55.5t72.5 -169.5q0 -30 -6 -66l-256 2l-216 -4 q0 -62 59.5 -104.5t141.5 -42.5q64 0 121 21.5t94 49.5zM110 293l213 -3l198 4q0 61 -56.5 97t-145.5 36q-91 0 -150 -36t-59 -98z" />
<glyph unicode="&#x116;" horiz-adv-x="713" d="M352 727v88l46 -2l42 2v-88h-88zM99 649l86 -2l491 2l-2 -42l2 -42h-493l-5 -185h424l-2 -41l2 -40h-427l-1 -49l7 -165h505l-2 -42l2 -43l-501 2l-86 -2l11 250z" />
<glyph unicode="&#x117;" horiz-adv-x="625" d="M268 630v88l46 -2l42 2v-88h-88zM523 143l54 -78q-104 -81 -255 -81q-122 0 -202 67t-80 192q0 119 73.5 194t203.5 75q123 0 195.5 -55.5t72.5 -169.5q0 -30 -6 -66l-256 2l-216 -4q0 -62 59.5 -104.5t141.5 -42.5q64 0 121 21.5t94 49.5zM110 293l213 -3l198 4 q0 61 -56.5 97t-145.5 36q-91 0 -150 -36t-59 -98z" />
<glyph unicode="&#x118;" horiz-adv-x="713" d="M99 649l86 -2l491 2l-2 -42l2 -42h-493l-5 -185h424l-2 -41l2 -40h-427l-1 -49l7 -165h505l-2 -42l2 -43h-17q-56 -40 -75.5 -62.5t-19.5 -50.5q0 -19 17.5 -27.5t38.5 -8.5t55 13l7 -24l11 -25q-40 -20 -82 -20q-46 0 -73.5 23.5t-27.5 58.5q0 69 91 123l-426 2l-86 -2 l11 250z" />
<glyph unicode="&#x119;" horiz-adv-x="625" d="M471 -185q-40 -20 -82 -20q-46 0 -73.5 23.5t-27.5 58.5q0 61 68 108q-11 -1 -34 -1q-122 0 -202 67t-80 192q0 119 73.5 194t203.5 75q123 0 195.5 -55.5t72.5 -169.5q0 -30 -6 -66l-256 2l-216 -4q0 -62 59.5 -104.5t141.5 -42.5q64 0 121 21.5t94 49.5l54 -78 q-62 -48 -143 -67q-54 -38 -73 -61t-19 -50q0 -19 17.5 -27.5t38.5 -8.5t55 13l7 -24zM110 293l213 -3l198 4q0 61 -56.5 97t-145.5 36q-91 0 -150 -36t-59 -98z" />
<glyph unicode="&#x11a;" horiz-adv-x="713" d="M489 846h71l-104 -135l-69 2l-62 -2l-101 135h72l91 -96zM99 649l86 -2l491 2l-2 -42l2 -42h-493l-5 -185h424l-2 -41l2 -40h-427l-1 -49l7 -165h505l-2 -42l2 -43l-501 2l-86 -2l11 250z" />
<glyph unicode="&#x11b;" horiz-adv-x="625" d="M415 717h71l-104 -135l-69 2l-62 -2l-101 135h72l91 -96zM523 143l54 -78q-104 -81 -255 -81q-122 0 -202 67t-80 192q0 119 73.5 194t203.5 75q123 0 195.5 -55.5t72.5 -169.5q0 -30 -6 -66l-256 2l-216 -4q0 -62 59.5 -104.5t141.5 -42.5q64 0 121 21.5t94 49.5z M110 293l213 -3l198 4q0 61 -56.5 97t-145.5 36q-91 0 -150 -36t-59 -98z" />
<glyph unicode="&#x11c;" horiz-adv-x="762" d="M515 711l-102 96l-91 -96h-72l101 135l62 -2l69 2l104 -135h-71zM373 324l337 -3l-2 -208l2 -53q-116 -78 -285 -78q-183 0 -279 97.5t-96 247.5q0 161 101.5 250t267.5 89q130 0 237 -51l-39 -73q-93 40 -190 40q-145 0 -230.5 -70t-85.5 -196q0 -116 85.5 -183 t232.5 -67q120 0 209 46l4 127l-269 -2l2 42z" />
<glyph unicode="&#x11d;" horiz-adv-x="621" d="M397 582l-102 96l-91 -96h-72l101 135l62 -2l69 2l104 -135h-71zM292 175q-67 0 -112 22q-51 -20 -51 -56q0 -28 39.5 -39.5t124.5 -11.5q154 0 221.5 -29.5t67.5 -118.5q0 -173 -291 -173q-48 0 -91 8t-83 25t-63.5 50.5t-23.5 78.5q0 77 78 119q-45 33 -45 84 q0 60 60 102q-39 42 -39 106q0 73 57 120t151 47q72 0 126 -30l173 26l-2 -49l2 -48h-106q14 -31 14 -66q0 -78 -57 -122.5t-150 -44.5zM292 258q68 0 109 24t41 61q0 34 -37.5 59t-112.5 25q-76 0 -113.5 -24.5t-37.5 -59.5q0 -37 41 -61t110 -24zM293 4q-65 0 -111 12 q-38 -9 -59.5 -32.5t-21.5 -49.5q0 -80 192 -80q97 0 163 22.5t66 66.5q0 20 -17 32.5t-68.5 20.5t-143.5 8z" />
<glyph unicode="&#x11e;" horiz-adv-x="762" d="M338 830q0 -28 25 -43t54 -15q28 0 53 15.5t25 42.5h46q0 -47 -29.5 -83.5t-94.5 -36.5t-94.5 36.5t-29.5 83.5h45zM373 324l337 -3l-2 -208l2 -53q-116 -78 -285 -78q-183 0 -279 97.5t-96 247.5q0 161 101.5 250t267.5 89q130 0 237 -51l-39 -73q-93 40 -190 40 q-145 0 -230.5 -70t-85.5 -196q0 -116 85.5 -183t232.5 -67q120 0 209 46l4 127l-269 -2l2 42z" />
<glyph unicode="&#x11f;" horiz-adv-x="621" d="M216 701q0 -28 25 -43t54 -15q28 0 53 15.5t25 42.5h46q0 -47 -29.5 -83.5t-94.5 -36.5t-94.5 36.5t-29.5 83.5h45zM292 175q-67 0 -112 22q-51 -20 -51 -56q0 -28 39.5 -39.5t124.5 -11.5q154 0 221.5 -29.5t67.5 -118.5q0 -173 -291 -173q-48 0 -91 8t-83 25 t-63.5 50.5t-23.5 78.5q0 77 78 119q-45 33 -45 84q0 60 60 102q-39 42 -39 106q0 73 57 120t151 47q72 0 126 -30l173 26l-2 -49l2 -48h-106q14 -31 14 -66q0 -78 -57 -122.5t-150 -44.5zM292 258q68 0 109 24t41 61q0 34 -37.5 59t-112.5 25q-76 0 -113.5 -24.5 t-37.5 -59.5q0 -37 41 -61t110 -24zM293 4q-65 0 -111 12q-38 -9 -59.5 -32.5t-21.5 -49.5q0 -80 192 -80q97 0 163 22.5t66 66.5q0 20 -17 32.5t-68.5 20.5t-143.5 8z" />
<glyph unicode="&#x120;" horiz-adv-x="762" d="M377 727v88l46 -2l42 2v-88h-88zM373 324l337 -3l-2 -208l2 -53q-116 -78 -285 -78q-183 0 -279 97.5t-96 247.5q0 161 101.5 250t267.5 89q130 0 237 -51l-39 -73q-93 40 -190 40q-145 0 -230.5 -70t-85.5 -196q0 -116 85.5 -183t232.5 -67q120 0 209 46l4 127l-269 -2 l2 42z" />
<glyph unicode="&#x121;" horiz-adv-x="621" d="M249 630v88l46 -2l42 2v-88h-88zM292 175q-67 0 -112 22q-51 -20 -51 -56q0 -28 39.5 -39.5t124.5 -11.5q154 0 221.5 -29.5t67.5 -118.5q0 -173 -291 -173q-48 0 -91 8t-83 25t-63.5 50.5t-23.5 78.5q0 77 78 119q-45 33 -45 84q0 60 60 102q-39 42 -39 106q0 73 57 120 t151 47q72 0 126 -30l173 26l-2 -49l2 -48h-106q14 -31 14 -66q0 -78 -57 -122.5t-150 -44.5zM292 258q68 0 109 24t41 61q0 34 -37.5 59t-112.5 25q-76 0 -113.5 -24.5t-37.5 -59.5q0 -37 41 -61t110 -24zM293 4q-65 0 -111 12q-38 -9 -59.5 -32.5t-21.5 -49.5 q0 -80 192 -80q97 0 163 22.5t66 66.5q0 20 -17 32.5t-68.5 20.5t-143.5 8z" />
<glyph unicode="&#x122;" horiz-adv-x="762" d="M373 324l337 -3l-2 -208l2 -53q-116 -78 -285 -78q-183 0 -279 97.5t-96 247.5q0 161 101.5 250t267.5 89q130 0 237 -51l-39 -73q-93 40 -190 40q-145 0 -230.5 -70t-85.5 -196q0 -116 85.5 -183t232.5 -67q120 0 209 46l4 127l-269 -2l2 42zM368 -286v196h70l-45 -196 h-25z" />
<glyph unicode="&#x123;" horiz-adv-x="621" d="M314 780v-226h-70l45 226h25zM292 175q-67 0 -112 22q-51 -20 -51 -56q0 -28 39.5 -39.5t124.5 -11.5q154 0 221.5 -29.5t67.5 -118.5q0 -173 -291 -173q-48 0 -91 8t-83 25t-63.5 50.5t-23.5 78.5q0 77 78 119q-45 33 -45 84q0 60 60 102q-39 42 -39 106q0 73 57 120 t151 47q72 0 126 -30l173 26l-2 -49l2 -48h-106q14 -31 14 -66q0 -78 -57 -122.5t-150 -44.5zM292 258q68 0 109 24t41 61q0 34 -37.5 59t-112.5 25q-76 0 -113.5 -24.5t-37.5 -59.5q0 -37 41 -61t110 -24zM293 4q-65 0 -111 12q-38 -9 -59.5 -32.5t-21.5 -49.5 q0 -80 192 -80q97 0 163 22.5t66 66.5q0 20 -17 32.5t-68.5 20.5t-143.5 8z" />
<glyph unicode="&#x124;" horiz-adv-x="879" d="M542 711l-102 96l-91 -96h-72l101 135l62 -2l69 2l104 -135h-71zM100 0l11 250l-11 399l43 -2l43 2l-7 -266h521l-7 266l43 -2l43 2l-11 -399l11 -250l-43 2l-43 -2l11 250l-1 46h-527l-1 -46l11 -250l-43 2z" />
<glyph unicode="&#x125;" horiz-adv-x="668" d="M227 716l-102 96l-91 -96h-72l101 135l62 -2l69 2l104 -135h-71zM85 0l11 249l-11 450l43 -2l43 2l-6 -251q92 64 205 64q24 0 46 -2.5t53 -13.5t53 -29.5t38 -54t16 -84.5l-1 -79l8 -249l-39 2l-39 -2l9 249l-1 64q-9 109 -148 114q-117 0 -202 -65l-3 -113l11 -249 l-43 2z" />
<glyph unicode="&#x126;" horiz-adv-x="879" d="M100 0l11 250l-6 209h-68l2 35l-2 37h66l-3 118l43 -2l43 2l-3 -118h513l-3 118l43 -2l43 2l-3 -118h66l-2 -37l2 -35h-68l-6 -209l11 -250l-43 2l-43 -2l11 250l-1 46h-527l-1 -46l11 -250l-43 2zM179 383h521l-2 76h-517z" />
<glyph unicode="&#x127;" horiz-adv-x="668" d="M85 0l11 249l-8 309h-60l2 33l-2 37h59l-2 71l43 -2l43 2l-2 -71h195l-2 -37l2 -33h-196l-3 -110q92 64 205 64q24 0 46 -2.5t53 -13.5t53 -29.5t38 -54t16 -84.5l-1 -79l8 -249l-39 2l-39 -2l9 249l-1 64q-9 109 -148 114q-117 0 -202 -65l-3 -113l11 -249l-43 2z" />
<glyph unicode="&#x128;" horiz-adv-x="286" d="M214 822h63q0 -40 -21.5 -69.5t-57.5 -29.5q-23 0 -51.5 17.5t-41.5 17.5q-15 0 -25 -11t-10 -29h-60q0 39 18 68t55 29q25 0 56 -17.5t42 -17.5q14 0 23.5 12.5t9.5 29.5zM100 0l11 250l-11 399l43 -2l43 2l-11 -399l11 -250l-43 2z" />
<glyph unicode="&#x129;" horiz-adv-x="242" d="M194 697h63q0 -40 -21.5 -69.5t-57.5 -29.5q-23 0 -51.5 17.5t-41.5 17.5q-15 0 -25 -11t-10 -29h-60q0 39 18 68t55 29q25 0 56 -17.5t42 -17.5q14 0 23.5 12.5t9.5 29.5zM75 0l11 249l-11 249l43 -2l43 2l-11 -249l11 -249l-43 2z" />
<glyph unicode="&#x12a;" horiz-adv-x="286" d="M9 740v53h267v-53h-267zM100 0l11 250l-11 399l43 -2l43 2l-11 -399l11 -250l-43 2z" />
<glyph unicode="&#x12b;" horiz-adv-x="242" d="M-15 613v53h267v-53h-267zM75 0l11 249l-11 249l43 -2l43 2l-11 -249l11 -249l-43 2z" />
<glyph unicode="&#x12c;" horiz-adv-x="286" d="M66 828q0 -28 25 -43t54 -15q28 0 53 15.5t25 42.5h46q0 -47 -29.5 -83.5t-94.5 -36.5t-94.5 36.5t-29.5 83.5h45zM100 0l11 250l-11 399l43 -2l43 2l-11 -399l11 -250l-43 2z" />
<glyph unicode="&#x12d;" horiz-adv-x="242" d="M41 701q0 -28 25 -43t54 -15q28 0 53 15.5t25 42.5h46q0 -47 -29.5 -83.5t-94.5 -36.5t-94.5 36.5t-29.5 83.5h45zM75 0l11 249l-11 249l43 -2l43 2l-11 -249l11 -249l-43 2z" />
<glyph unicode="&#x12e;" horiz-adv-x="286" d="M100 0l11 250l-11 399l43 -2l43 2l-11 -399l11 -250l-25 1q-57 -40 -77 -63t-20 -51q0 -19 17.5 -27.5t38.5 -8.5t55 13l7 -24l11 -25q-40 -20 -82 -20q-46 0 -73.5 23.5t-27.5 58.5q0 69 91 123h-1z" />
<glyph unicode="&#x12f;" horiz-adv-x="242" d="M77 603v88l46 -2l42 2v-88h-88zM201 -185q-40 -20 -82 -20q-47 0 -74 25t-27 67q0 55 60 116l11 246l-11 249l43 -2l43 2l-11 -249l11 -249l-34 2q-58 -50 -58 -102q0 -49 57 -49q24 0 54 13l7 -24z" />
<glyph unicode="&#x130;" horiz-adv-x="286" d="M99 727v88l46 -2l42 2v-88h-88zM100 0l11 250l-11 399l43 -2l43 2l-11 -399l11 -250l-43 2z" />
<glyph unicode="&#x131;" horiz-adv-x="236" d="M75 0l11 249l-11 249l43 -2l43 2l-11 -249l11 -249l-43 2z" />
<glyph unicode="&#x132;" horiz-adv-x="656" d="M546 250q0 -71 -20 -124.5t-54 -84t-74 -45t-84 -13.5q-87 0 -148 53.5t-66 128.5l45 -2l44 2q6 -47 42.5 -74.5t88.5 -27.5q71 0 116.5 52.5t45.5 134.5l-11 399l43 -2l43 2zM101 236l11 250l-11 163l43 -2l43 2l-11 -163l11 -250l-43 2z" />
<glyph unicode="&#x133;" horiz-adv-x="406" d="M225 691l46 -2l42 2v-88h-88v88zM77 603v88l46 -2l42 2v-88h-88zM174 -173q-27 0 -53 6l5 37l1 42q30 -7 47 -7q26 0 37.5 15t15.5 55l8 274l-9 249l43 -2l43 2l-9 -249l8 -293q1 -57 -35 -93t-102 -36zM78 0l11 249l-11 249l43 -2l43 2l-11 -249l11 -249l-43 2z" />
<glyph unicode="&#x134;" horiz-adv-x="523" d="M486 711l-102 96l-91 -96h-72l101 135l62 -2l69 2l104 -135h-71zM413 250q0 -71 -18.5 -124.5t-50 -83t-67.5 -44t-75 -14.5q-59 0 -111 30t-80 81l69 47q23 -36 62 -57t81 -21q65 0 95.5 50t30.5 136l-11 399l43 -2l43 2z" />
<glyph unicode="&#x135;" horiz-adv-x="291" d="M246 582l-102 96l-91 -96h-72l101 135l62 -2l69 2l104 -135h-71zM63 -174q-27 0 -57 7l5 36l1 43q21 -7 41 -7q28 0 41.5 15t17.5 55l8 274l-9 249l43 -2l43 2l-9 -249l8 -293q1 -51 -37.5 -90.5t-95.5 -39.5z" />
<glyph unicode="&#x136;" horiz-adv-x="750" d="M99 0l11 250l-11 399l43 -2l43 2l-10 -351l145 104l309 249l27 -40l32 -37l-275 -201l123 -157l184 -216h-121l-126 179l-123 148l-174 -133l9 -194l-43 2zM322 -286v196h70l-45 -196h-25z" />
<glyph unicode="&#x137;" horiz-adv-x="565" d="M85 0l11 249l-11 450l43 -2l43 2l-11 -447l138 102l185 147l25 -35l29 -34l-191 -139l-8 -6l78 -98l161 -189h-103l-120 146l-79 92l-111 -86l7 -152l-43 2zM270 -286v196h70l-45 -196h-25z" />
<glyph unicode="&#x139;" horiz-adv-x="697" d="M107 711l97 140h122l-142 -140h-77zM670 45l2 -45l-487 2l-86 -2l11 250l-11 399l43 -2l43 2l-11 -399l7 -166l491 5z" />
<glyph unicode="&#x13a;" horiz-adv-x="246" d="M88 764l97 140h122l-142 -140h-77zM80 0l11 249l-11 450l43 -2l43 2l-11 -450l11 -249l-43 2z" />
<glyph unicode="&#x13b;" horiz-adv-x="697" d="M670 45l2 -45l-487 2l-86 -2l11 250l-11 399l43 -2l43 2l-11 -399l7 -166l491 5zM356 -286v196h70l-45 -196h-25z" />
<glyph unicode="&#x13c;" horiz-adv-x="246" d="M80 0l11 249l-11 450l43 -2l43 2l-11 -450l11 -249l-43 2zM91 -286v196h70l-45 -196h-25z" />
<glyph unicode="&#x13d;" horiz-adv-x="697" d="M293 424v226h80l-45 -226h-35zM670 45l2 -45l-487 2l-86 -2l11 250l-11 399l43 -2l43 2l-11 -399l7 -166l491 5z" />
<glyph unicode="&#x13e;" horiz-adv-x="246" d="M222 896h71l-104 -135l-69 2l-62 -2l-101 135h72l91 -96zM80 0l11 249l-11 450l43 -2l43 2l-11 -450l11 -249l-43 2z" />
<glyph unicode="&#x13f;" horiz-adv-x="697" d="M670 45l2 -45l-487 2l-86 -2l11 250l-11 399l43 -2l43 2l-11 -399l7 -166l491 5zM355 341v88l46 -2l42 2v-88h-88z" />
<glyph unicode="&#x140;" horiz-adv-x="302" d="M80 0l11 249l-11 450l43 -2l43 2l-11 -450l11 -249l-43 2zM206 276v88l46 -2l42 2v-88h-88z" />
<glyph unicode="&#x141;" horiz-adv-x="697" d="M-15 241l123 87l-9 321l43 -2l43 2l-7 -271l63 45h90l-155 -110l-2 -63l7 -166l491 5l-2 -44l2 -45l-487 2l-86 -2l11 250v16l-35 -25h-90z" />
<glyph unicode="&#x142;" horiz-adv-x="356" d="M130 0l11 249l-1 24l-45 -32h-90l134 95l-9 363l43 -2l43 2l-8 -313l53 37h90l-144 -103l-2 -71l11 -249l-43 2z" />
<glyph unicode="&#x143;" horiz-adv-x="861" d="M389 711l97 140h122l-142 -140h-77zM99 0l11 250l-15 400h91l486 -550l3 150l-11 400l51 -2l45 2l-11 -400l15 -250h-89l-484 554l-7 -304l11 -250l-53 2z" />
<glyph unicode="&#x144;" horiz-adv-x="693" d="M310 582l97 140h122l-142 -140h-77zM85 0l11 249l-11 249l43 -2l43 2l-3 -66q44 36 108 58.5t130 22.5q190 0 190 -184l12 -329l-39 2l-39 -2l2 313q0 53 -46 83.5t-112 30.5q-61 0 -118 -25t-92 -61l-4 -92l11 -249l-43 2z" />
<glyph unicode="&#x145;" horiz-adv-x="861" d="M99 0l11 250l-15 400h91l486 -550l3 150l-11 400l51 -2l45 2l-11 -400l15 -250h-89l-484 554l-7 -304l11 -250l-53 2zM406 -286v196h70l-45 -196h-25z" />
<glyph unicode="&#x146;" horiz-adv-x="693" d="M85 0l11 249l-11 249l43 -2l43 2l-3 -66q44 36 108 58.5t130 22.5q190 0 190 -184l12 -329l-39 2l-39 -2l2 313q0 53 -46 83.5t-112 30.5q-61 0 -118 -25t-92 -61l-4 -92l11 -249l-43 2zM315 -286v196h70l-45 -196h-25z" />
<glyph unicode="&#x147;" horiz-adv-x="861" d="M538 846h71l-104 -135l-69 2l-62 -2l-101 135h72l91 -96zM99 0l11 250l-15 400h91l486 -550l3 150l-11 400l51 -2l45 2l-11 -400l15 -250h-89l-484 554l-7 -304l11 -250l-53 2z" />
<glyph unicode="&#x148;" horiz-adv-x="693" d="M443 717h71l-104 -135l-69 2l-62 -2l-101 135h72l91 -96zM85 0l11 249l-11 249l43 -2l43 2l-3 -66q44 36 108 58.5t130 22.5q190 0 190 -184l12 -329l-39 2l-39 -2l2 313q0 53 -46 83.5t-112 30.5q-61 0 -118 -25t-92 -61l-4 -92l11 -249l-43 2z" />
<glyph unicode="&#x14c;" horiz-adv-x="828" d="M285 740v53h267v-53h-267zM40 324q0 157 104.5 249.5t270.5 92.5t269.5 -92.5t103.5 -249.5q0 -84 -32 -151.5t-85.5 -108t-119 -61.5t-136.5 -21q-57 0 -110.5 13t-101.5 40.5t-84 67t-57.5 96.5t-21.5 125zM101 337q0 -71 26.5 -124.5t71.5 -85t99.5 -46.5t116.5 -15 q60 0 114 15.5t99.5 46t72.5 84.5t27 125q0 107 -87.5 176t-225.5 69t-226 -69t-88 -176z" />
<glyph unicode="&#x14d;" horiz-adv-x="653" d="M187 613v53h267v-53h-267zM327 -16q-129 0 -208 70.5t-79 193.5q0 116 78.5 190t208.5 74q129 0 207.5 -74t78.5 -190q0 -123 -78.5 -193.5t-207.5 -70.5zM327 70q101 0 160 47.5t59 124.5q0 75 -55 130t-164 55q-110 0 -165 -55t-55 -130q0 -77 59.5 -124.5t160.5 -47.5 z" />
<glyph unicode="&#x14e;" horiz-adv-x="828" d="M339 828q0 -28 25 -43t54 -15q28 0 53 15.5t25 42.5h46q0 -47 -29.5 -83.5t-94.5 -36.5t-94.5 36.5t-29.5 83.5h45zM40 324q0 157 104.5 249.5t270.5 92.5t269.5 -92.5t103.5 -249.5q0 -84 -32 -151.5t-85.5 -108t-119 -61.5t-136.5 -21q-57 0 -110.5 13t-101.5 40.5 t-84 67t-57.5 96.5t-21.5 125zM101 337q0 -71 26.5 -124.5t71.5 -85t99.5 -46.5t116.5 -15q60 0 114 15.5t99.5 46t72.5 84.5t27 125q0 107 -87.5 176t-225.5 69t-226 -69t-88 -176z" />
<glyph unicode="&#x14f;" horiz-adv-x="653" d="M247 701q0 -28 25 -43t54 -15q28 0 53 15.5t25 42.5h46q0 -47 -29.5 -83.5t-94.5 -36.5t-94.5 36.5t-29.5 83.5h45zM327 -16q-129 0 -208 70.5t-79 193.5q0 116 78.5 190t208.5 74q129 0 207.5 -74t78.5 -190q0 -123 -78.5 -193.5t-207.5 -70.5zM327 70q101 0 160 47.5 t59 124.5q0 75 -55 130t-164 55q-110 0 -165 -55t-55 -130q0 -77 59.5 -124.5t160.5 -47.5z" />
<glyph unicode="&#x150;" horiz-adv-x="828" d="M399 837h97l-126 -127h-62zM546 837h98l-127 -127h-62zM40 324q0 157 104.5 249.5t270.5 92.5t269.5 -92.5t103.5 -249.5q0 -84 -32 -151.5t-85.5 -108t-119 -61.5t-136.5 -21q-57 0 -110.5 13t-101.5 40.5t-84 67t-57.5 96.5t-21.5 125zM101 337q0 -71 26.5 -124.5 t71.5 -85t99.5 -46.5t116.5 -15q60 0 114 15.5t99.5 46t72.5 84.5t27 125q0 107 -87.5 176t-225.5 69t-226 -69t-88 -176z" />
<glyph unicode="&#x151;" horiz-adv-x="653" d="M301 731h97l-126 -127h-62zM448 731h98l-127 -127h-62zM327 -16q-129 0 -208 70.5t-79 193.5q0 116 78.5 190t208.5 74q129 0 207.5 -74t78.5 -190q0 -123 -78.5 -193.5t-207.5 -70.5zM327 70q101 0 160 47.5t59 124.5q0 75 -55 130t-164 55q-110 0 -165 -55t-55 -130 q0 -77 59.5 -124.5t160.5 -47.5z" />
<glyph unicode="&#x152;" horiz-adv-x="1334" d="M40 324q0 157 104.5 249.5t270.5 92.5q103 0 182.5 -37.5t126.5 -107.5l-4 128l86 -2l491 2l-2 -42l2 -42h-493l-5 -185h424l-2 -41l2 -40h-427l-1 -49l7 -165h505l-2 -42l2 -43l-501 2l-86 -2l6 133q-49 -74 -132 -112.5t-179 -38.5q-57 0 -110.5 13t-101.5 40.5t-84 67 t-57.5 96.5t-21.5 125zM101 337q0 -71 26.5 -124.5t71.5 -85t99.5 -46.5t116.5 -15q60 0 114 15.5t99.5 46t72.5 84.5t27 125q0 107 -87.5 176t-225.5 69t-226 -69t-88 -176z" />
<glyph unicode="&#x153;" horiz-adv-x="1121" d="M327 -16q-130 0 -208.5 72t-78.5 202q0 109 79 181.5t208 72.5q87 0 150 -34.5t96 -94.5q61 129 240 129q140 0 213 -72t49 -219l-256 2l-216 -4q6 -62 64.5 -104.5t154.5 -42.5q104 0 197 71l54 -78q-110 -81 -255 -81q-188 0 -246 129q-68 -129 -245 -129zM327 70 q101 0 160 48.5t59 129.5q0 32 -12.5 62.5t-37.5 57.5t-69 43t-100 16q-109 0 -164.5 -54t-55.5 -125q0 -81 59 -129.5t161 -48.5zM606 297l213 -3l197 4q4 57 -54 93t-147 36q-177 0 -209 -130z" />
<glyph unicode="&#x154;" horiz-adv-x="768" d="M322 711l97 140h122l-142 -140h-77zM607 -3l-118 222l-35 56h-279l10 -275l-43 2l-43 -2l11 250l-11 399l84 -2l282 2q253 2 253 -185q0 -162 -188 -185l15 -27l161 -252zM443 565h-260l-6 -209h266q114 0 164.5 22t50.5 85t-49 82.5t-166 19.5z" />
<glyph unicode="&#x155;" horiz-adv-x="423" d="M179 582l97 140h122l-142 -140h-77zM85 0l11 249l-11 249l43 -2l43 2l-5 -108q37 51 92.5 86.5t125.5 35.5q20 0 39 -4v-85q-22 5 -45 5q-68 0 -123.5 -35t-91.5 -82l-3 -62l11 -249l-43 2z" />
<glyph unicode="&#x156;" horiz-adv-x="768" d="M607 -3l-118 222l-35 56h-279l10 -275l-43 2l-43 -2l11 250l-11 399l84 -2l282 2q253 2 253 -185q0 -162 -188 -185l15 -27l161 -252zM443 565h-260l-6 -209h266q114 0 164.5 22t50.5 85t-49 82.5t-166 19.5zM351 -286v196h70l-45 -196h-25z" />
<glyph unicode="&#x157;" horiz-adv-x="423" d="M85 0l11 249l-11 249l43 -2l43 2l-5 -108q37 51 92.5 86.5t125.5 35.5q20 0 39 -4v-85q-22 5 -45 5q-68 0 -123.5 -35t-91.5 -82l-3 -62l11 -249l-43 2zM93 -286v196h70l-45 -196h-25z" />
<glyph unicode="&#x158;" horiz-adv-x="768" d="M502 846h71l-104 -135l-69 2l-62 -2l-101 135h72l91 -96zM607 -3l-118 222l-35 56h-279l10 -275l-43 2l-43 -2l11 250l-11 399l84 -2l282 2q253 2 253 -185q0 -162 -188 -185l15 -27l161 -252zM443 565h-260l-6 -209h266q114 0 164.5 22t50.5 85t-49 82.5t-166 19.5z" />
<glyph unicode="&#x159;" horiz-adv-x="423" d="M350 717h71l-104 -135l-69 2l-62 -2l-101 135h72l91 -96zM85 0l11 249l-11 249l43 -2l43 2l-5 -108q37 51 92.5 86.5t125.5 35.5q20 0 39 -4v-85q-22 5 -45 5q-68 0 -123.5 -35t-91.5 -82l-3 -62l11 -249l-43 2z" />
<glyph unicode="&#x15a;" horiz-adv-x="737" d="M324 711l97 140h122l-142 -140h-77zM49 92l41 92q68 -52 153.5 -82.5t170.5 -30.5q58 0 106.5 12t82 40t33.5 68q0 38 -31 61t-80.5 32t-109.5 14t-120.5 13.5t-110 24t-80.5 51t-31 90.5q0 97 80.5 143t217.5 46q152 0 291 -60l-41 -85q-141 62 -281 62 q-92 0 -148.5 -29t-56.5 -80q0 -36 31 -56.5t80.5 -28.5t109.5 -12.5t120 -13t109.5 -25t80.5 -54.5t31 -96q0 -96 -80 -149.5t-209 -54.5q-194 -1 -359 108z" />
<glyph unicode="&#x15b;" horiz-adv-x="576" d="M256 582l97 140h122l-142 -140h-77zM39 72l41 84q54 -42 126 -67t143 -25q70 0 100.5 21t30.5 53q0 38 -43 55t-104 21.5t-122 13t-104 40.5t-43 91q0 53 35.5 88.5t87 50t115.5 15.5q121 -1 218 -50l-40 -74q-93 43 -196 43q-66 0 -109 -19.5t-43 -54.5 q0 -27 30.5 -41.5t76.5 -17t100 -9.5t100 -17.5t76.5 -43.5t30.5 -85q0 -80 -64.5 -120t-158.5 -40q-76 0 -153.5 25t-130.5 63z" />
<glyph unicode="&#x15c;" horiz-adv-x="737" d="M481 711l-102 96l-91 -96h-72l101 135l62 -2l69 2l104 -135h-71zM49 92l41 92q68 -52 153.5 -82.5t170.5 -30.5q58 0 106.5 12t82 40t33.5 68q0 38 -31 61t-80.5 32t-109.5 14t-120.5 13.5t-110 24t-80.5 51t-31 90.5q0 97 80.5 143t217.5 46q152 0 291 -60l-41 -85 q-141 62 -281 62q-92 0 -148.5 -29t-56.5 -80q0 -36 31 -56.5t80.5 -28.5t109.5 -12.5t120 -13t109.5 -25t80.5 -54.5t31 -96q0 -96 -80 -149.5t-209 -54.5q-194 -1 -359 108z" />
<glyph unicode="&#x15d;" horiz-adv-x="576" d="M389 582l-102 96l-91 -96h-72l101 135l62 -2l69 2l104 -135h-71zM39 72l41 84q54 -42 126 -67t143 -25q70 0 100.5 21t30.5 53q0 38 -43 55t-104 21.5t-122 13t-104 40.5t-43 91q0 53 35.5 88.5t87 50t115.5 15.5q121 -1 218 -50l-40 -74q-93 43 -196 43 q-66 0 -109 -19.5t-43 -54.5q0 -27 30.5 -41.5t76.5 -17t100 -9.5t100 -17.5t76.5 -43.5t30.5 -85q0 -80 -64.5 -120t-158.5 -40q-76 0 -153.5 25t-130.5 63z" />
<glyph unicode="&#x15e;" horiz-adv-x="737" d="M49 92l41 92q68 -52 153.5 -82.5t170.5 -30.5q58 0 106.5 12t82 40t33.5 68q0 38 -31 61t-80.5 32t-109.5 14t-120.5 13.5t-110 24t-80.5 51t-31 90.5q0 97 80.5 143t217.5 46q152 0 291 -60l-41 -85q-141 62 -281 62q-92 0 -148.5 -29t-56.5 -80q0 -36 31 -56.5 t80.5 -28.5t109.5 -12.5t120 -13t109.5 -25t80.5 -54.5t31 -96q0 -96 -80 -150t-209 -54h-9l-16 -20l-19 -27l2 -2q21 7 44 7q41 0 67.5 -20t26.5 -53q0 -42 -40.5 -68.5t-99.5 -26.5q-52 0 -108 21l10 24l6 26q46 -16 90 -16q40 0 68 13.5t28 29.5q0 12 -20 20t-52 8 q-30 0 -63 -9l-16 20l-17 16l32 42l12 18q-152 16 -285 105z" />
<glyph unicode="&#x15f;" horiz-adv-x="576" d="M39 72l41 84q54 -42 126 -67t143 -25q70 0 100.5 21t30.5 53q0 38 -43 55t-104 21.5t-122 13t-104 40.5t-43 91q0 53 35.5 88.5t87 50t115.5 15.5q121 -1 218 -50l-40 -74q-93 43 -196 43q-66 0 -109 -19.5t-43 -54.5q0 -27 30.5 -41.5t76.5 -17t100 -9.5t100 -17.5 t76.5 -43.5t30.5 -85q0 -80 -64 -120t-158 -40l-16 -20l-19 -27l2 -2q21 7 44 7q41 0 67.5 -20t26.5 -53q0 -42 -40.5 -68.5t-99.5 -26.5q-52 0 -108 21l10 24l6 26q46 -16 90 -16q40 0 68 13.5t28 29.5q0 12 -19.5 20t-52.5 8q-30 0 -63 -9l-16 20l-17 16l32 42l13 19 q-130 18 -221 84z" />
<glyph unicode="&#x160;" horiz-adv-x="737" d="M492 846h71l-104 -135l-69 2l-62 -2l-101 135h72l91 -96zM49 92l41 92q68 -52 153.5 -82.5t170.5 -30.5q58 0 106.5 12t82 40t33.5 68q0 38 -31 61t-80.5 32t-109.5 14t-120.5 13.5t-110 24t-80.5 51t-31 90.5q0 97 80.5 143t217.5 46q152 0 291 -60l-41 -85 q-141 62 -281 62q-92 0 -148.5 -29t-56.5 -80q0 -36 31 -56.5t80.5 -28.5t109.5 -12.5t120 -13t109.5 -25t80.5 -54.5t31 -96q0 -96 -80 -149.5t-209 -54.5q-194 -1 -359 108z" />
<glyph unicode="&#x161;" horiz-adv-x="576" d="M418 717h71l-104 -135l-69 2l-62 -2l-101 135h72l91 -96zM39 72l41 84q54 -42 126 -67t143 -25q70 0 100.5 21t30.5 53q0 38 -43 55t-104 21.5t-122 13t-104 40.5t-43 91q0 53 35.5 88.5t87 50t115.5 15.5q121 -1 218 -50l-40 -74q-93 43 -196 43q-66 0 -109 -19.5 t-43 -54.5q0 -27 30.5 -41.5t76.5 -17t100 -9.5t100 -17.5t76.5 -43.5t30.5 -85q0 -80 -64.5 -120t-158.5 -40q-76 0 -153.5 25t-130.5 63z" />
<glyph unicode="&#x162;" horiz-adv-x="713" d="M314 0l11 250l-9 315h-296v84h673v-84h-295l-9 -315l11 -250l-43 2zM344 -286v196h70l-45 -196h-25z" />
<glyph unicode="&#x163;" horiz-adv-x="385" d="M179 133q3 -32 28.5 -51t64.5 -19q34 0 68 15l17 -79q-60 -15 -109 -15q-39 0 -66.5 11.5t-40.5 26.5t-20.5 38.5t-8.5 36.5t-1 31l1 121l-4 174h-86l3 37l-3 38h87l-11 175l48 -2l43 2l-7 -175h165l-2 -37l2 -38h-165l-4 -174zM180 -286v196h70l-45 -196h-25z" />
<glyph unicode="&#x164;" horiz-adv-x="713" d="M457 846h71l-104 -135l-69 2l-62 -2l-101 135h72l91 -96zM314 0l11 250l-9 315h-296v84h673v-84h-295l-9 -315l11 -250l-43 2z" />
<glyph unicode="&#x165;" horiz-adv-x="385" d="M274 556v226h80l-45 -226h-35zM179 133q3 -32 28.5 -51t64.5 -19q34 0 68 15l17 -79q-60 -15 -109 -15q-39 0 -66.5 11.5t-40.5 26.5t-20.5 38.5t-8.5 36.5t-1 31l1 121l-4 174h-86l3 37l-3 38h87l-11 175l48 -2l43 2l-7 -175h165l-2 -37l2 -38h-165l-4 -174z" />
<glyph unicode="&#x166;" horiz-adv-x="713" d="M95 216l2 35l-2 37h229l-8 277h-296v84h673v-84h-295l-8 -277h230l-2 -37l2 -35h-230l10 -216l-43 2l-43 -2l10 216h-229z" />
<glyph unicode="&#x167;" horiz-adv-x="385" d="M179 133q3 -32 28.5 -51t64.5 -19q34 0 68 15l17 -79q-60 -15 -109 -15q-39 0 -66.5 11.5t-40.5 26.5t-20.5 38.5t-8.5 36.5t-1 31l1 111h-82l2 33l-2 37h80l-2 114h-86l3 37l-3 38h87l-11 175l48 -2l43 2l-7 -175h165l-2 -37l2 -38h-165l-2 -114h166l-2 -37l2 -33h-168z " />
<glyph unicode="&#x168;" horiz-adv-x="875" d="M522 822h63q0 -40 -21.5 -69.5t-57.5 -29.5q-23 0 -51.5 17.5t-41.5 17.5q-15 0 -25 -11t-10 -29h-60q0 39 18 68t55 29q25 0 56 -17.5t42 -17.5q14 0 23.5 12.5t9.5 29.5zM769 250q0 -63 -20.5 -112t-53 -78t-77.5 -47t-88.5 -24.5t-92.5 -6.5t-92.5 6.5t-88.5 24.5 t-77 47t-52.5 78t-20.5 112l-11 399l43 -2l43 2l-11 -399q0 -91 69.5 -137t197.5 -46t198 46t70 137l-11 399l43 -2l43 2z" />
<glyph unicode="&#x169;" horiz-adv-x="665" d="M403 697h63q0 -40 -21.5 -69.5t-57.5 -29.5q-23 0 -51.5 17.5t-41.5 17.5q-15 0 -25 -11t-10 -29h-60q0 39 18 68t55 29q25 0 56 -17.5t42 -17.5q14 0 23.5 12.5t9.5 29.5zM85 498l39 -2l39 2l-9 -249l1 -64q0 -58 40.5 -85t95.5 -29q62 0 118.5 21t90.5 54l5 103 l-11 249l43 -2l43 2l-11 -249l11 -249l-43 2l-43 -2l3 66q-98 -80 -227 -80q-21 0 -40 2.5t-45.5 13.5t-45.5 29.5t-33 54t-14 84.5l1 79z" />
<glyph unicode="&#x16a;" horiz-adv-x="875" d="M311 740v53h267v-53h-267zM769 250q0 -63 -20.5 -112t-53 -78t-77.5 -47t-88.5 -24.5t-92.5 -6.5t-92.5 6.5t-88.5 24.5t-77 47t-52.5 78t-20.5 112l-11 399l43 -2l43 2l-11 -399q0 -91 69.5 -137t197.5 -46t198 46t70 137l-11 399l43 -2l43 2z" />
<glyph unicode="&#x16b;" horiz-adv-x="665" d="M204 613v53h267v-53h-267zM85 498l39 -2l39 2l-9 -249l1 -64q0 -58 40.5 -85t95.5 -29q62 0 118.5 21t90.5 54l5 103l-11 249l43 -2l43 2l-11 -249l11 -249l-43 2l-43 -2l3 66q-98 -80 -227 -80q-21 0 -40 2.5t-45.5 13.5t-45.5 29.5t-33 54t-14 84.5l1 79z" />
<glyph unicode="&#x16c;" horiz-adv-x="875" d="M357 828q0 -28 25 -43t54 -15q28 0 53 15.5t25 42.5h46q0 -47 -29.5 -83.5t-94.5 -36.5t-94.5 36.5t-29.5 83.5h45zM769 250q0 -63 -20.5 -112t-53 -78t-77.5 -47t-88.5 -24.5t-92.5 -6.5t-92.5 6.5t-88.5 24.5t-77 47t-52.5 78t-20.5 112l-11 399l43 -2l43 2l-11 -399 q0 -91 69.5 -137t197.5 -46t198 46t70 137l-11 399l43 -2l43 2z" />
<glyph unicode="&#x16d;" horiz-adv-x="665" d="M258 701q0 -28 25 -43t54 -15q28 0 53 15.5t25 42.5h46q0 -47 -29.5 -83.5t-94.5 -36.5t-94.5 36.5t-29.5 83.5h45zM85 498l39 -2l39 2l-9 -249l1 -64q0 -58 40.5 -85t95.5 -29q62 0 118.5 21t90.5 54l5 103l-11 249l43 -2l43 2l-11 -249l11 -249l-43 2l-43 -2l3 66 q-98 -80 -227 -80q-21 0 -40 2.5t-45.5 13.5t-45.5 29.5t-33 54t-14 84.5l1 79z" />
<glyph unicode="&#x16e;" horiz-adv-x="875" d="M322 816q0 47 28.5 77t83.5 30t84 -30t29 -77q0 -46 -29 -76.5t-84 -30.5t-83.5 30.5t-28.5 76.5zM434 773q71 0 71 43t-71 43q-70 0 -70 -43t70 -43zM769 250q0 -63 -20.5 -112t-53 -78t-77.5 -47t-88.5 -24.5t-92.5 -6.5t-92.5 6.5t-88.5 24.5t-77 47t-52.5 78 t-20.5 112l-11 399l43 -2l43 2l-11 -399q0 -91 69.5 -137t197.5 -46t198 46t70 137l-11 399l43 -2l43 2z" />
<glyph unicode="&#x16f;" horiz-adv-x="665" d="M220 683q0 47 28.5 77t83.5 30t84 -30t29 -77q0 -46 -29 -76.5t-84 -30.5t-83.5 30.5t-28.5 76.5zM332 640q71 0 71 43t-71 43q-70 0 -70 -43t70 -43zM85 498l39 -2l39 2l-9 -249l1 -64q0 -58 40.5 -85t95.5 -29q62 0 118.5 21t90.5 54l5 103l-11 249l43 -2l43 2 l-11 -249l11 -249l-43 2l-43 -2l3 66q-98 -80 -227 -80q-21 0 -40 2.5t-45.5 13.5t-45.5 29.5t-33 54t-14 84.5l1 79z" />
<glyph unicode="&#x170;" horiz-adv-x="875" d="M382 837h97l-126 -127h-62zM529 837h98l-127 -127h-62zM769 250q0 -63 -20.5 -112t-53 -78t-77.5 -47t-88.5 -24.5t-92.5 -6.5t-92.5 6.5t-88.5 24.5t-77 47t-52.5 78t-20.5 112l-11 399l43 -2l43 2l-11 -399q0 -91 69.5 -137t197.5 -46t198 46t70 137l-11 399l43 -2 l43 2z" />
<glyph unicode="&#x171;" horiz-adv-x="665" d="M318 731h97l-126 -127h-62zM465 731h98l-127 -127h-62zM85 498l39 -2l39 2l-9 -249l1 -64q0 -58 40.5 -85t95.5 -29q62 0 118.5 21t90.5 54l5 103l-11 249l43 -2l43 2l-11 -249l11 -249l-43 2l-43 -2l3 66q-98 -80 -227 -80q-21 0 -40 2.5t-45.5 13.5t-45.5 29.5t-33 54 t-14 84.5l1 79z" />
<glyph unicode="&#x172;" horiz-adv-x="875" d="M557 -185q-40 -20 -82 -20q-46 0 -73.5 23.5t-27.5 58.5q0 59 63 105q-49 0 -92.5 6.5t-88.5 24.5t-77 47t-52.5 78t-20.5 112l-11 399l43 -2l43 2l-11 -399q0 -91 69.5 -137t197.5 -46t198 46t70 137l-11 399l43 -2l43 2l-11 -399q0 -68 -22.5 -118.5t-62 -80t-84 -45 t-97.5 -21.5q-43 -31 -59 -51.5t-16 -46.5q0 -19 17.5 -27.5t38.5 -8.5t55 13l7 -24z" />
<glyph unicode="&#x173;" horiz-adv-x="665" d="M85 498l39 -2l39 2l-9 -249l1 -64q0 -58 40.5 -85t95.5 -29q62 0 118.5 21t90.5 54l5 103l-11 249l43 -2l43 2l-11 -249l11 -249l-29 1q-57 -40 -77 -63t-20 -51q0 -19 17.5 -27.5t38.5 -8.5t55 13l7 -24l11 -25q-40 -20 -82 -20q-46 0 -73.5 23.5t-27.5 58.5 q0 37 22 66.5t72 58.5l3 64q-98 -80 -227 -80q-21 0 -40 2.5t-45.5 13.5t-45.5 29.5t-33 54t-14 84.5l1 79z" />
<glyph unicode="&#x174;" horiz-adv-x="978" d="M591 711l-102 96l-91 -96h-72l101 135l62 -2l69 2l104 -135h-71zM227 0l-91 281l-131 369h88l97 -319l77 -221l75 213l98 326l47 -2l49 2l95 -321l77 -211l72 205l98 328h94l-126 -371l-93 -279l-39 3l-44 -3l-89 281l-88 256h-4l-81 -250l-88 -287l-46 3z" />
<glyph unicode="&#x175;" horiz-adv-x="850" d="M520 582l-102 96l-91 -96h-72l101 135l62 -2l69 2l104 -135h-71zM376 270l-92 -270l-49 3l-47 -3l-90 271l-91 229h88l67 -204l68 -189l75 189l63 202l57 -2l49 2l66 -202l72 -189l73 188l61 205h94l-87 -230l-90 -270l-48 2l-52 -2l-86 271l-48 124h-4z" />
<glyph unicode="&#x176;" horiz-adv-x="657" d="M430 711l-102 96l-91 -96h-72l101 135l62 -2l69 2l104 -135h-71zM283 0l6 250v2l-107 159l-189 239h112l130 -194l91 -119l91 121l127 192h123l-197 -242l-109 -156v-2l8 -250l-43 2z" />
<glyph unicode="&#x177;" horiz-adv-x="571" d="M376 584l-102 96l-91 -96h-72l101 135l62 -2l69 2l104 -135h-71zM109 -174q-45 0 -92 14l15 85q34 -10 63 -10q103 0 148 95l-93 190l-161 300h92l137 -276l63 -110l70 126l129 260h99l-160 -292l-134 -272q-55 -110 -176 -110z" />
<glyph unicode="&#x178;" horiz-adv-x="657" d="M467 718h-88v88l46 -2l42 2v-88zM183 718v88l46 -2l42 2v-88h-88zM283 0l6 250v2l-107 159l-189 239h112l130 -194l91 -119l91 121l127 192h123l-197 -242l-109 -156v-2l8 -250l-43 2z" />
<glyph unicode="&#x179;" horiz-adv-x="695" d="M322 711l97 140h122l-142 -140h-77zM22 0v50l300 289l229 229l-233 3l-268 -3l2 41l-2 40h611v-52l-284 -281l-232 -237l244 -2l284 4l-2 -41l2 -40h-651z" />
<glyph unicode="&#x17a;" horiz-adv-x="559" d="M248 582l97 140h122l-142 -140h-77zM516 499l-2 -49l-231 -219l-152 -150l206 -2l187 2l-2 -40l2 -41h-509v49l222 209l161 160l-188 2l-175 -2l1 40l-1 41h481z" />
<glyph unicode="&#x17b;" horiz-adv-x="695" d="M321 727v88l46 -2l42 2v-88h-88zM22 0v50l300 289l229 229l-233 3l-268 -3l2 41l-2 40h611v-52l-284 -281l-232 -237l244 -2l284 4l-2 -41l2 -40h-651z" />
<glyph unicode="&#x17c;" horiz-adv-x="559" d="M264 630v88l46 -2l42 2v-88h-88zM516 499l-2 -49l-231 -219l-152 -150l206 -2l187 2l-2 -40l2 -41h-509v49l222 209l161 160l-188 2l-175 -2l1 40l-1 41h481z" />
<glyph unicode="&#x17d;" horiz-adv-x="695" d="M445 846h71l-104 -135l-69 2l-62 -2l-101 135h72l91 -96zM22 0v50l300 289l229 229l-233 3l-268 -3l2 41l-2 40h611v-52l-284 -281l-232 -237l244 -2l284 4l-2 -41l2 -40h-651z" />
<glyph unicode="&#x17e;" horiz-adv-x="559" d="M400 717h71l-104 -135l-69 2l-62 -2l-101 135h72l91 -96zM516 499l-2 -49l-231 -219l-152 -150l206 -2l187 2l-2 -40l2 -41h-509v49l222 209l161 160l-188 2l-175 -2l1 40l-1 41h481z" />
<glyph unicode="&#x192;" d="M46 288l2 41l-2 45h162l19 103q34 189 167 189q32 0 86 -7l-12 -43l-8 -39q-37 8 -73 8q-87 0 -115 -142l-13 -69h179l-2 -45l2 -41h-194l-42 -226q-23 -129 -60.5 -176t-108.5 -47q-42 0 -93 8l11 39l7 43q42 -8 66 -8q28 0 49.5 9.5t34 23.5t23 40t15.5 47t12 58 l35 189h-147z" />
<glyph unicode="&#x218;" horiz-adv-x="737" d="M49 92l41 92q68 -52 153.5 -82.5t170.5 -30.5q58 0 106.5 12t82 40t33.5 68q0 38 -31 61t-80.5 32t-109.5 14t-120.5 13.5t-110 24t-80.5 51t-31 90.5q0 97 80.5 143t217.5 46q152 0 291 -60l-41 -85q-141 62 -281 62q-92 0 -148.5 -29t-56.5 -80q0 -36 31 -56.5 t80.5 -28.5t109.5 -12.5t120 -13t109.5 -25t80.5 -54.5t31 -96q0 -96 -80 -149.5t-209 -54.5q-194 -1 -359 108zM356 -286v196h70l-45 -196h-25z" />
<glyph unicode="&#x219;" horiz-adv-x="576" d="M39 72l41 84q54 -42 126 -67t143 -25q70 0 100.5 21t30.5 53q0 38 -43 55t-104 21.5t-122 13t-104 40.5t-43 91q0 53 35.5 88.5t87 50t115.5 15.5q121 -1 218 -50l-40 -74q-93 43 -196 43q-66 0 -109 -19.5t-43 -54.5q0 -27 30.5 -41.5t76.5 -17t100 -9.5t100 -17.5 t76.5 -43.5t30.5 -85q0 -80 -64.5 -120t-158.5 -40q-76 0 -153.5 25t-130.5 63zM275 -286v196h70l-45 -196h-25z" />
<glyph unicode="&#x21a;" horiz-adv-x="713" d="M314 0l11 250l-9 315h-296v84h673v-84h-295l-9 -315l11 -250l-43 2zM344 -286v196h70l-45 -196h-25z" />
<glyph unicode="&#x21b;" horiz-adv-x="385" d="M179 133q3 -32 28.5 -51t64.5 -19q34 0 68 15l17 -79q-60 -15 -109 -15q-39 0 -66.5 11.5t-40.5 26.5t-20.5 38.5t-8.5 36.5t-1 31l1 121l-4 174h-86l3 37l-3 38h87l-11 175l48 -2l43 2l-7 -175h165l-2 -37l2 -38h-165l-4 -174zM180 -286v196h70l-45 -196h-25z" />
<glyph unicode="&#x2c6;" horiz-adv-x="296" d="M246 582l-102 96l-91 -96h-72l101 135l62 -2l69 2l104 -135h-71z" />
<glyph unicode="&#x2c7;" horiz-adv-x="296" d="M246 717h71l-104 -135l-69 2l-62 -2l-101 135h72l91 -96z" />
<glyph unicode="&#x2d8;" d="M66 701q0 -28 25 -43t54 -15q28 0 53 15.5t25 42.5h46q0 -47 -29.5 -83.5t-94.5 -36.5t-94.5 36.5t-29.5 83.5h45z" />
<glyph unicode="&#x2d9;" d="M6 630v88l46 -2l42 2v-88h-88z" />
<glyph unicode="&#x2da;" d="M42 726q0 47 28.5 77t83.5 30t84 -30t29 -77q0 -46 -29 -76.5t-84 -30.5t-83.5 30.5t-28.5 76.5zM154 683q71 0 71 43t-71 43q-70 0 -70 -43t70 -43z" />
<glyph unicode="&#x2db;" d="M357 -185q-40 -20 -82 -20q-46 0 -73.5 23.5t-27.5 58.5q0 38 24 68.5t79 61.5l59 2q-65 -45 -86.5 -69t-21.5 -53q0 -19 17.5 -27.5t38.5 -8.5t55 13l7 -24z" />
<glyph unicode="&#x2dc;" horiz-adv-x="188" d="M165 651h63q0 -40 -21.5 -69.5t-57.5 -29.5q-23 0 -51.5 17.5t-41.5 17.5q-15 0 -25 -11t-10 -29h-60q0 39 18 68t55 29q25 0 56 -17.5t42 -17.5q14 0 23.5 12.5t9.5 29.5z" />
<glyph unicode="&#x2dd;" d="M188 731h97l-126 -127h-62zM335 731h98l-127 -127h-62z" />
<glyph unicode="&#x394;" horiz-adv-x="749" d="M20 74l295 529l60 -2l64 2l290 -528v-75h-709v74zM635 86l-261 425h-4l-260 -425h525z" />
<glyph unicode="&#x3a9;" horiz-adv-x="996" d="M40 0l2 40l-2 42h206v4q-187 96 -187 251q0 129 120 205t326 76q208 0 319.5 -76.5t111.5 -202.5q0 -155 -189 -253v-4h209l-2 -41l2 -41h-379v70q56 24 89.5 40t76.5 41.5t66.5 49t40.5 56.5t17 70q0 88 -90 143t-275 55q-183 0 -274 -53t-91 -141q0 -45 22.5 -84.5 t64.5 -71.5t89 -56.5t108 -48.5v-70h-381z" />
<glyph unicode="&#x3bc;" horiz-adv-x="665" d="M81 -133l11 303l1 79l-8 249l39 -2l39 2l-9 -249l1 -64q0 -58 40.5 -85t95.5 -29q62 0 118.5 21t90.5 54l5 103l-11 249l43 -2l43 2l-11 -249l11 -249l-43 2l-43 -2l3 66q-98 -80 -227 -80q-77 0 -123 38l20 -157l-43 2z" />
<glyph unicode="&#x3c0;" horiz-adv-x="755" d="M24 441l-5 40l-9 44q93 32 195 32l540 -1l-2 -45l2 -41h-159l9 -217q3 -69 19 -129l-56 2l-58 -2q-11 62 -8 128l9 218l-206 1q-12 -194 -85 -347l-47 2l-52 -2q84 172 103 347h-3q-97 0 -187 -30z" />
<glyph unicode="&#x1e80;" horiz-adv-x="978" d="M445 712l-138 140h100l128 -140h-90zM227 0l-91 281l-131 369h88l97 -319l77 -221l75 213l98 326l47 -2l49 2l95 -321l77 -211l72 205l98 328h94l-126 -371l-93 -279l-39 3l-44 -3l-89 281l-88 256h-4l-81 -250l-88 -287l-46 3z" />
<glyph unicode="&#x1e81;" horiz-adv-x="850" d="M377 582l-138 140h100l128 -140h-90zM376 270l-92 -270l-49 3l-47 -3l-90 271l-91 229h88l67 -204l68 -189l75 189l63 202l57 -2l49 2l66 -202l72 -189l73 188l61 205h94l-87 -230l-90 -270l-48 2l-52 -2l-86 271l-48 124h-4z" />
<glyph unicode="&#x1e82;" horiz-adv-x="978" d="M451 711l97 140h122l-142 -140h-77zM227 0l-91 281l-131 369h88l97 -319l77 -221l75 213l98 326l47 -2l49 2l95 -321l77 -211l72 205l98 328h94l-126 -371l-93 -279l-39 3l-44 -3l-89 281l-88 256h-4l-81 -250l-88 -287l-46 3z" />
<glyph unicode="&#x1e83;" horiz-adv-x="850" d="M382 582l97 140h122l-142 -140h-77zM376 270l-92 -270l-49 3l-47 -3l-90 271l-91 229h88l67 -204l68 -189l75 189l63 202l57 -2l49 2l66 -202l72 -189l73 188l61 205h94l-87 -230l-90 -270l-48 2l-52 -2l-86 271l-48 124h-4z" />
<glyph unicode="&#x1e84;" horiz-adv-x="978" d="M634 718h-88v88l46 -2l42 2v-88zM350 718v88l46 -2l42 2v-88h-88zM227 0l-91 281l-131 369h88l97 -319l77 -221l75 213l98 326l47 -2l49 2l95 -321l77 -211l72 205l98 328h94l-126 -371l-93 -279l-39 3l-44 -3l-89 281l-88 256h-4l-81 -250l-88 -287l-46 3z" />
<glyph unicode="&#x1e85;" horiz-adv-x="850" d="M573 630h-88v88l46 -2l42 2v-88zM289 630v88l46 -2l42 2v-88h-88zM376 270l-92 -270l-49 3l-47 -3l-90 271l-91 229h88l67 -204l68 -189l75 189l63 202l57 -2l49 2l66 -202l72 -189l73 188l61 205h94l-87 -230l-90 -270l-48 2l-52 -2l-86 271l-48 124h-4z" />
<glyph unicode="&#x1ef2;" horiz-adv-x="657" d="M289 712l-138 140h100l128 -140h-90zM283 0l6 250v2l-107 159l-189 239h112l130 -194l91 -119l91 121l127 192h123l-197 -242l-109 -156v-2l8 -250l-43 2z" />
<glyph unicode="&#x1ef3;" horiz-adv-x="571" d="M260 582l-138 140h100l128 -140h-90zM109 -174q-45 0 -92 14l15 85q34 -10 63 -10q103 0 148 95l-93 190l-161 300h92l137 -276l63 -110l70 126l129 260h99l-160 -292l-134 -272q-55 -110 -176 -110z" />
<glyph unicode="&#x2000;" horiz-adv-x="461" />
<glyph unicode="&#x2001;" horiz-adv-x="923" />
<glyph unicode="&#x2002;" horiz-adv-x="461" />
<glyph unicode="&#x2003;" horiz-adv-x="923" />
<glyph unicode="&#x2004;" horiz-adv-x="307" />
<glyph unicode="&#x2005;" horiz-adv-x="230" />
<glyph unicode="&#x2006;" horiz-adv-x="153" />
<glyph unicode="&#x2007;" horiz-adv-x="153" />
<glyph unicode="&#x2008;" horiz-adv-x="115" />
<glyph unicode="&#x2009;" horiz-adv-x="184" />
<glyph unicode="&#x200a;" horiz-adv-x="51" />
<glyph unicode="&#x2010;" horiz-adv-x="444" d="M54 223l2 41l-2 45h336l-2 -45l2 -41h-336z" />
<glyph unicode="&#x2011;" horiz-adv-x="444" d="M54 223l2 41l-2 45h336l-2 -45l2 -41h-336z" />
<glyph unicode="&#x2012;" horiz-adv-x="444" d="M54 223l2 41l-2 45h336l-2 -45l2 -41h-336z" />
<glyph unicode="&#x2013;" d="M462 242h-425l2 23l-2 25h425l-2 -25z" />
<glyph unicode="&#x2014;" horiz-adv-x="1000" d="M962 242h-925l2 24l-2 24h925l-2 -24z" />
<glyph unicode="&#x2018;" horiz-adv-x="370" d="M266 655l-60 -196h-110l105 196h65z" />
<glyph unicode="&#x2019;" horiz-adv-x="370" d="M96 459l60 196h110l-105 -196h-65z" />
<glyph unicode="&#x201a;" horiz-adv-x="362" d="M98 -87l60 196h110l-105 -196h-65z" />
<glyph unicode="&#x201c;" horiz-adv-x="495" d="M417 650l-89 -227h-110l134 227h65zM277 650l-89 -227h-110l134 227h65z" />
<glyph unicode="&#x201d;" horiz-adv-x="495" d="M78 423l89 227h110l-134 -227h-65zM218 423l89 227h110l-134 -227h-65z" />
<glyph unicode="&#x201e;" horiz-adv-x="438" d="M94 -86v196h110l-45 -196h-65zM234 -86v196h110l-45 -196h-65z" />
<glyph unicode="&#x2020;" d="M228 440l-156 -8l2 47l-2 47l156 -6l-12 180l37 -2l40 2l-12 -180l156 6l-2 -47l2 -47l-156 8l9 -138l8 -387l-46 2l-41 -2l8 387z" />
<glyph unicode="&#x2021;" d="M281 95l12 -180l-40 2l-37 -2l12 180l-156 -6l2 47l-2 47l144 -7l8 132l-8 131l-144 -7l2 47l-2 47l156 -6l-12 180l37 -2l40 2l-12 -180l156 6l-2 -47l2 -47l-143 7l-9 -131l8 -132l144 7l-2 -47l2 -47z" />
<glyph unicode="&#x2022;" d="M243 463q64 0 109.5 -47t45.5 -114t-45 -114.5t-110 -47.5q-64 0 -109.5 47.5t-45.5 114.5t45.5 114t109.5 47z" />
<glyph unicode="&#x2026;" horiz-adv-x="810" d="M240 0h-110v110l57 -3l53 3v-110zM460 0h-110v110l57 -3l53 3v-110zM680 0h-110v110l57 -3l53 3v-110z" />
<glyph unicode="&#x202f;" horiz-adv-x="184" />
<glyph unicode="&#x2030;" horiz-adv-x="914" d="M168 679q59 0 98 -38.5t39 -94.5t-39 -95t-98 -39q-60 0 -99 39t-39 95t39 94.5t99 38.5zM449 679h51l-361 -679h-51zM168 485q86 0 86 61q0 60 -86 60q-87 0 -87 -60q0 -61 87 -61zM435 299q60 0 99 -39t39 -95t-39 -94.5t-99 -38.5t-99 38.5t-39 94.5t39 95t99 39z M747 299q59 0 98 -39t39 -95t-39 -94.5t-98 -38.5q-60 0 -99 38.5t-39 94.5t39 95t99 39zM435 105q87 0 87 60q0 61 -87 61t-87 -61q0 -60 87 -60zM747 105q86 0 86 60q0 61 -86 61q-87 0 -87 -61q0 -60 87 -60z" />
<glyph unicode="&#x2039;" horiz-adv-x="268" d="M149 56l-99 193l99 195l37 -1l42 1l-117 -195l117 -193l-43 1z" />
<glyph unicode="&#x203a;" horiz-adv-x="268" d="M119 56l-36 1l-43 -1l117 193l-117 195l42 -1l37 1l99 -195z" />
<glyph unicode="&#x2044;" horiz-adv-x="442" d="M5 0l383 679h49l-383 -679h-49z" />
<glyph unicode="&#x205f;" horiz-adv-x="230" />
<glyph unicode="&#x20ac;" horiz-adv-x="748" d="M20 214l2 41l-2 45h79q-1 8 -1 24t1 24h-79l2 41l-2 45h94q34 109 129.5 170.5t229.5 61.5q137 0 235 -65l-45 -64q-79 45 -190 45q-104 0 -181 -40t-111 -108h310l-2 -45l2 -41h-332v-11q0 -13 2 -37h330l-2 -45l2 -41h-306q36 -75 114 -111.5t174 -36.5q99 0 172 37 l46 -64q-96 -57 -218 -57q-123 0 -223.5 59.5t-135.5 172.5h-94z" />
<glyph unicode="&#x20b9;" horiz-adv-x="726" d="M40 424l4 41l-4 43h444q-15 35 -62.5 47t-141.5 12h-240l4 39l-4 44h39v1h223q24 0 36 -1h348l-3 -44l3 -39h-159q15 -22 23 -59h136l-3 -43l3 -41h-137q-16 -79 -83.5 -113.5t-163.5 -30.5l-171 8l395 -222l-35 -43l-23 -39l-427 296l5 38l-5 42h239q92 0 140.5 13.5 t64.5 50.5h-445z" />
<glyph unicode="&#x2122;" horiz-adv-x="926" d="M421 284l18 141l9 225h51v-2l1 2l157 -313h2l149 313h61l9 -225l18 -141l-27 1l-31 -1l-4 141l-13 165l-142 -306l-21 1l-20 -1l-144 296l-12 -155l-4 -141l-31 1zM196 284l6 141l-5 177h-167v47h379v-47h-166l-5 -177l6 -141l-24 1z" />
<glyph unicode="&#x2202;" horiz-adv-x="755" d="M86 599q109 48 231 48q171 0 284.5 -87.5t113.5 -234.5q0 -102 -57 -180t-146.5 -117.5t-193.5 -39.5q-128 0 -203 58t-75 142q0 89 83 151.5t217 64.5q161 3 309 -90q0 115 -86 181.5t-223 66.5q-114 0 -212 -49l-17 42zM633 259q-134 63 -278 62q-114 -1 -184 -38 t-70 -94q0 -55 63.5 -85.5t154.5 -30.5q123 0 211 54.5t103 131.5z" />
<glyph unicode="&#x220f;" horiz-adv-x="870" d="M160 0l11 250l-9 318h-152l2 41l-2 45h850l-2 -45l2 -41h-152l-9 -318l11 -250l-43 2l-43 -2l11 250l-9 318h-382l-9 -318l11 -250l-43 2z" />
<glyph unicode="&#x2211;" horiz-adv-x="843" d="M99 0l2 27l-2 29l359 248v31l-341 252l2 31l-2 32h655l-2 -37l2 -47h-496v-14l259 -203l-2 -27l2 -26l-276 -198v-13h557l-2 -42l2 -43h-717z" />
<glyph unicode="&#x221a;" horiz-adv-x="819" d="M432 2l-36 2l-35 -2l-184 373h-137l2 42l-2 43h200l139 -386h23l263 752l53 -2l61 2z" />
<glyph unicode="&#x221e;" horiz-adv-x="1015" d="M508 303q-10 -6 -37 -23t-40 -25t-39 -21t-45.5 -19.5t-46.5 -11.5t-55 -5q-98 0 -151.5 33.5t-53.5 98.5q0 61 57.5 96.5t158.5 35.5q30 0 57 -5t59.5 -20.5t44.5 -22t50.5 -31.5t40.5 -26q7 5 42.5 28t50.5 31t46 22t61 19.5t63 4.5q204 -3 204 -132q0 -61 -57.5 -96.5 t-158.5 -35.5q-30 0 -57.5 5.5t-58.5 20.5t-44.5 22t-50 31t-40.5 26zM451 330q-102 59 -196 59q-155 0 -155 -59t151 -59q111 0 200 59zM916 330q0 59 -151 59q-111 0 -200 -59q102 -59 196 -59q155 0 155 59z" />
<glyph unicode="&#x222b;" horiz-adv-x="460" d="M425 665q-26 4 -43 4q-123 0 -115 -198l14 -353q5 -119 -43.5 -165t-141.5 -46q-50 0 -76 8l11 44l6 38q18 -5 50 -5q54 0 87.5 43.5t28.5 149.5l-17 358q-10 208 190 208q43 0 64 -6l-10 -42z" />
<glyph unicode="&#x2248;" horiz-adv-x="530" d="M490 342q-18 -28 -31 -44t-37 -30.5t-52 -14.5q-37 0 -95.5 35t-93.5 35q-34 0 -55.5 -20t-39.5 -53l-46 47q44 87 115 87q38 0 108 -34.5t94 -34.5q19 0 36 12t27 25.5t23 36.5zM490 178q-18 -28 -31 -44t-37 -30.5t-52 -14.5q-37 0 -95.5 35t-93.5 35q-56 0 -95 -73 l-46 47q44 87 115 87q38 0 108 -34.5t94 -34.5q19 0 36 12t27 25.5t23 36.5z" />
<glyph unicode="&#x2260;" horiz-adv-x="513" d="M100 0l60 107h-120l2 30l-2 30h154l68 121h-222l2 30l-2 30h256l63 112h49l-63 -112h127l-2 -30l2 -30h-161l-68 -121h229l-2 -30l2 -30h-263l-60 -107h-49z" />
<glyph unicode="&#x2264;" horiz-adv-x="513" d="M40 307l2 24l-2 25l432 217l-2 -43l2 -36l-363 -162l363 -164l-2 -36l2 -42zM40 18l2 30l-2 30h432l-2 -30l2 -30h-432z" />
<glyph unicode="&#x2265;" horiz-adv-x="513" d="M473 307l-432 -217l2 42l-2 36l363 164l-363 162l2 36l-2 43l432 -217l-2 -25zM472 18h-432l2 30l-2 30h432l-2 -30z" />
<glyph unicode="&#x25ca;" horiz-adv-x="653" d="M375 6l-47 2l-51 -2l-257 318l257 318l48 -2l50 2l258 -318zM325 582h-3l-236 -257l241 -258h2l236 256z" />
<glyph unicode="&#x25fc;" d="M0 500h500v-500h-500v500z" />
<glyph horiz-adv-x="242" d="M79 630v88l46 -2l42 2v-88h-88zM75 0l11 249l-11 249l43 -2l43 2l-11 -249l11 -249l-43 2z" />
</font>
</defs>
</svg>
